<?xml version="1.0" standalone="no"?>
<!DOCTYPE svg PUBLIC "-//W3C//DTD SVG 1.1//EN" "http://www.w3.org/Graphics/SVG/1.1/DTD/svg11.dtd" >
<svg xmlns="http://www.w3.org/2000/svg" xmlns:xlink="http://www.w3.org/1999/xlink" version="1.1">
<metadata></metadata>
<defs>
<font id="proxima_nova_cn_ththin" horiz-adv-x="944" >
<font-face units-per-em="2048" ascent="1618" descent="-430" />
<missing-glyph horiz-adv-x="450" />
<glyph horiz-adv-x="0" />
<glyph horiz-adv-x="682" />
<glyph unicode=" "  horiz-adv-x="450" />
<glyph unicode="&#x09;" horiz-adv-x="450" />
<glyph unicode="&#xa0;" horiz-adv-x="450" />
<glyph unicode="!" horiz-adv-x="425" d="M145 49q0 26 20 46t48 20t48 -20t20 -46q0 -28 -20 -48q-19 -19 -48 -19t-48 19q-20 20 -20 48zM170 1366h86l-23 -1036h-40z" />
<glyph unicode="&#x22;" horiz-adv-x="593" d="M127 1333q0 23 15 38t38 15t38 -15t15 -38q0 -10 -1 -24q-3 -42 -4 -52q-3 -28 -6 -68q-4 -49 -5 -77q-9 -107 -14 -205h-45q-3 45 -10 123.5t-7 81.5q-4 39 -6 77q-1 14 -2.5 37.5t-1.5 30.5q-2 33 -3 52q-1 14 -1 24zM360 1333q0 22 16 38q15 15 38 15t38 -15t15 -38 q0 -10 -1 -24q-3 -42 -4 -52q-3 -28 -6 -68q-4 -49 -5 -77q-12 -142 -15 -205h-45q-4 52 -16 205q-4 39 -6 77q-1 14 -2.5 37.5t-1.5 30.5q-1 12 -2.5 30.5t-1.5 21.5q-1 14 -1 24z" />
<glyph unicode="#" horiz-adv-x="985" d="M45 391l16 60h197l133 464h-198l12 60h203l108 391h68l-109 -391h205l111 391h65l-111 -391h195l-12 -60h-199l-133 -464h203l-15 -60h-204l-111 -391h-68l115 391h-209l-110 -391h-68l113 391h-197zM326 451h202l136 464h-207z" />
<glyph unicode="$" horiz-adv-x="901" d="M82 143l51 50q47 -64 125 -109q79 -46 178 -47v653q-33 16 -115 64q-62 36 -101 75q-43 43 -70 100t-27 136q0 73 25 129q26 57 69 99q45 43 99 66q53 22 120 27v187h66v-187q177 -12 282 -135l-45 -49q-47 57 -106 87q-60 30 -131 36v-592q56 -29 113 -67 q58 -38 101 -84q42 -45 70 -110q27 -63 27 -148q0 -63 -17 -117q-18 -58 -56 -106t-97 -81t-141 -40v-185h-66v180q-112 1 -205 48q-90 45 -149 120zM190 1065q0 -55 20 -100t53 -78q38 -38 79 -64q42 -27 94 -55v557q-52 -5 -96 -25q-48 -22 -78 -54q-33 -34 -52 -80 q-20 -48 -20 -101zM502 41q63 7 110 35q50 29 76 65q27 37 43 86q14 43 14 97q0 67 -19 115q-21 52 -53 89q-37 42 -78 70q-43 30 -93 57v-614z" />
<glyph unicode="%" horiz-adv-x="1294" d="M74 1051q0 73 19 133q20 62 55 106q36 45 86 71q49 25 112 25t112 -25q50 -26 86 -71q35 -44 55 -106q19 -60 19 -133q0 -74 -19 -132q-20 -63 -55 -106q-37 -46 -86 -70q-50 -24 -112 -24q-63 0 -112 24t-86 70q-35 43 -55 106q-19 58 -19 132zM141 1051q0 -57 15 -106 q16 -54 41 -88q27 -38 64 -60q38 -23 85 -23t85 23t65 60q25 34 41 88q14 46 14 106q0 61 -14 107q-16 53 -41 89q-27 39 -65 62q-37 22 -85 22t-85 -22q-36 -22 -64 -62q-25 -36 -41 -89q-15 -50 -15 -107zM260 0l713 1366h71l-714 -1366h-70zM676 307q0 73 19 133 q19 61 56 107q35 44 86 70q50 26 111 26q62 0 112 -26q51 -26 86 -70t55 -107t20 -133t-20 -132q-20 -61 -55 -105q-37 -46 -86 -70q-52 -25 -112 -25q-59 0 -111 25q-49 24 -86 70t-56 105q-19 58 -19 132zM743 307q0 -55 15 -105q16 -54 41 -88q29 -40 64 -61 q37 -22 85 -22t85 22t65 61q25 34 41 88q14 46 14 105q0 62 -14 108q-16 53 -41 89q-26 38 -65 61q-38 23 -85 23t-85 -23q-37 -22 -64 -61q-25 -36 -41 -89q-15 -50 -15 -108z" />
<glyph unicode="&#x26;" horiz-adv-x="1019" d="M96 328q0 80 21 143q23 70 54 114q38 55 77 91q44 40 90 78q-41 81 -70 166q-26 77 -26 149q0 143 66 230t173 87q93 0 151 -64t58 -181q0 -76 -23 -131q-24 -57 -62 -104q-35 -44 -87 -86q-59 -48 -98 -79q31 -61 73 -128q30 -48 68 -105q47 -73 78 -114q2 -2 72 -97 q45 92 76 189q25 78 44 155l64 -23q-23 -92 -57 -193q-32 -95 -80 -187q4 -5 38 -46.5t53 -63.5q23 -28 109 -128h-94q-12 15 -36 44.5t-31 38.5q-12 16 -36.5 47t-37.5 46q-55 -85 -134 -144q-77 -57 -181 -57q-65 0 -122 24t-99 69q-43 46 -66 110q-25 69 -25 150z M168 328q0 -75 19 -128q19 -52 53 -91q33 -38 75 -55q41 -17 91 -17q87 0 153 56q70 59 119 140q-61 79 -95 127q-41 57 -71 103q-33 49 -76 117q-34 55 -69 118q-82 -68 -140 -151q-59 -84 -59 -219zM313 1069q0 -59 22 -131q20 -66 56 -141q45 35 87 69q41 34 74 76 q31 40 51 89t20 110q0 96 -41 140t-101 44q-75 0 -121 -64q-47 -65 -47 -192z" />
<glyph unicode="'" horiz-adv-x="360" d="M127 1333q0 23 15 38t38 15t38 -15t15 -38q0 -10 -1 -24q-3 -42 -4 -52q-3 -28 -6 -68q-4 -49 -5 -77q-9 -107 -14 -205h-45q-3 45 -10 123.5t-7 81.5q-4 39 -6 77q-1 14 -2.5 37.5t-1.5 30.5q-2 33 -3 52q-1 14 -1 24z" />
<glyph unicode="(" horiz-adv-x="382" d="M96 498q0 243 55 471q54 222 162 434l35 -17q-44 -110 -74 -199t-56 -206q-23 -102 -37 -225q-13 -114 -13 -258q0 -143 13 -257q14 -123 37 -225q26 -114 56 -205q32 -95 74 -200l-35 -19q-108 212 -162 435q-55 228 -55 471z" />
<glyph unicode=")" horiz-adv-x="382" d="M35 -389q32 83 73 200q31 88 57 205q23 102 37 225q13 114 13 257q0 144 -13 258q-14 123 -37 225q-27 120 -57 206q-41 117 -73 200l35 16q108 -212 162 -434q55 -228 55 -471t-55 -471q-54 -223 -162 -435z" />
<glyph unicode="*" horiz-adv-x="632" d="M63 1001l218 111l-218 111l31 53l205 -133l-12 243h61l-12 -243l205 133l30 -53l-217 -111l217 -111l-30 -53l-205 133l12 -243h-61l12 243l-205 -133z" />
<glyph unicode="+" horiz-adv-x="888" d="M59 659v62h353v381h65v-381h352v-62h-352v-393h-65v393h-353z" />
<glyph unicode="," horiz-adv-x="425" d="M119 -205q50 38 79 89t29 100q-2 -2 -6 -2h-10q-29 0 -47 19q-19 21 -19 48q0 25 19 46q18 20 47 20q31 0 56 -28q24 -27 24 -81q0 -77 -39 -145q-40 -70 -88 -103z" />
<glyph unicode="-" horiz-adv-x="542" d="M61 465v61h420v-61h-420z" />
<glyph unicode="." horiz-adv-x="425" d="M145 49q0 26 20 46t48 20t48 -20t20 -46q0 -28 -20 -48q-19 -19 -48 -19t-48 19q-20 20 -20 48z" />
<glyph unicode="/" horiz-adv-x="456" d="M0 -41l393 1448h64l-394 -1448h-63z" />
<glyph unicode="0" horiz-adv-x="1005" d="M121 682q0 123 17 241q18 121 62 227q44 104 117 170q74 66 187 66q112 0 186 -66q73 -66 117 -170q41 -99 60 -227q18 -125 18 -241q0 -82 -7 -159q-8 -87 -25 -161q-18 -77 -45 -148t-71 -124q-46 -56 -100 -84q-59 -31 -133 -31q-113 0 -187 68q-73 67 -117 171 q-44 105 -62 228q-17 118 -17 240zM193 682q0 -102 12 -216q12 -113 47 -209q34 -94 95 -158q59 -62 157 -62q95 0 154 62q62 65 96 158q35 96 47 209q12 114 12 216t-12 216q-12 113 -47 209q-34 94 -96 157q-60 61 -154 61q-97 0 -157 -61q-59 -60 -94 -157 q-33 -90 -47 -209q-13 -110 -13 -216z" />
<glyph unicode="1" horiz-adv-x="532" d="M43 1083l264 283h62v-1366h-66v1272l-215 -236z" />
<glyph unicode="2" horiz-adv-x="948" d="M123 0v57q140 187 262 347q104 136 188 261q76 113 113 204q37 90 37 182q0 65 -22 118q-21 52 -57 86q-37 35 -81 53q-42 17 -94 17q-101 0 -172 -49q-72 -49 -115 -137l-57 35q51 98 137 156q83 56 207 56q61 0 120 -21q58 -21 103 -63q46 -43 73 -106q28 -65 28 -145 q0 -92 -38 -188q-36 -92 -112 -209q-76 -118 -184 -258q-40 -52 -254 -335h590v-61h-672z" />
<glyph unicode="3" horiz-adv-x="899" d="M74 209l61 29q41 -87 112 -144t179 -57q142 0 212 87q71 88 71 241q0 87 -26 148q-25 59 -68 96q-42 36 -95 51q-56 16 -108 16h-55q-22 0 -38 -2v65q20 -2 39 -2h54q55 0 106 18q53 19 90 53q40 37 62 90t22 128q0 152 -76 225q-77 74 -188 74q-100 0 -164 -50 q-65 -51 -117 -134l-57 35q50 93 139 152q88 58 199 58q68 0 128 -21q58 -20 107 -66q44 -41 72 -111q27 -68 27 -158q0 -68 -21 -122q-22 -57 -53 -95q-34 -42 -75 -68q-39 -25 -83 -38q39 -6 83 -32q43 -25 81 -69q37 -43 61 -104q23 -59 23 -140q0 -82 -21 -152 q-20 -68 -66 -123q-43 -51 -110 -82q-66 -30 -155 -30q-63 0 -120 19q-54 18 -99 51q-44 32 -79 75q-31 37 -54 89z" />
<glyph unicode="4" horiz-adv-x="854" d="M51 399v68l506 899h86v-905h160v-62h-160v-399h-65v399h-527zM119 461h459v817z" />
<glyph unicode="5" d="M131 209l59 31q46 -97 115 -151q67 -52 178 -52q62 0 113 30t88 80q35 48 56 118q20 68 20 141q0 186 -75 279t-193 93q-76 0 -139 -30q-59 -28 -128 -111l-55 33v696h592v-61h-526v-588q40 51 105 87t151 36q67 0 131 -28q59 -26 107 -82q46 -53 73 -136q26 -79 26 -188 q0 -92 -26 -169q-27 -78 -74 -138q-46 -58 -109 -91t-137 -33q-72 0 -126 18t-96 48q-43 31 -73 74q-31 45 -57 94z" />
<glyph unicode="6" horiz-adv-x="950" d="M121 682q0 132 17 250q18 122 62 226q44 103 118 165q75 63 192 63q109 0 179 -52q71 -52 114 -138l-53 -37q-37 75 -92 121q-54 45 -148 45q-99 0 -160 -62t-97 -160q-35 -96 -49 -214q-14 -121 -14 -227v-56q15 33 47 77q31 42 69 73q42 34 89 54q50 21 107 21 q73 0 134 -26t107 -80q46 -53 71 -134q26 -83 26 -190q0 -75 -21 -151q-21 -77 -62 -137q-43 -63 -108 -100q-67 -38 -155 -38q-110 0 -183 62q-69 59 -114 161q-44 99 -60 226q-16 124 -16 258zM197 504q5 -78 18 -148q16 -86 48 -152q36 -73 89 -119q56 -48 142 -48 q74 0 126 33q51 32 86 85q34 52 49 116q15 65 15 130q0 104 -20 170q-22 71 -57 114q-36 44 -86 65q-47 20 -107 20q-53 0 -98 -22t-85 -60t-69 -85q-30 -48 -51 -99z" />
<glyph unicode="7" horiz-adv-x="786" d="M61 1305v61h664v-45l-449 -1321h-69l444 1305h-590z" />
<glyph unicode="8" horiz-adv-x="931" d="M117 328q0 73 25 133q24 58 67 109q39 47 90 82q52 36 98 53q-42 15 -91 47q-47 31 -84 73q-39 45 -62 99q-25 58 -25 123q0 84 28 149q27 64 74 106q47 43 105 63q60 21 125 21q64 0 124 -21t105 -63q46 -43 73 -106q28 -65 28 -149q0 -65 -25 -123q-23 -54 -62 -99 q-37 -42 -84 -73q-50 -32 -89 -47q47 -18 97 -53q51 -35 90 -82q41 -48 66 -109q25 -60 25 -133q0 -78 -24 -144q-23 -63 -71 -111q-46 -47 -111 -72q-66 -26 -142 -26q-78 0 -144 26q-65 25 -111 72q-48 48 -71 110q-24 64 -24 145zM186 328q0 -69 23 -124q22 -53 60 -91 q37 -37 89 -57q50 -19 109 -19q56 0 106 19q53 20 90 57q38 38 60 91t22 124q0 88 -35 149q-37 65 -82 107q-44 41 -93 65q-46 22 -68 27q-23 -4 -69 -27q-49 -24 -93 -65q-47 -44 -83 -107t-36 -149zM205 1047q0 -81 34 -137t77 -93q41 -35 87 -56q47 -21 64 -26 q14 4 63 26q46 21 87 56q45 39 78 93q34 56 34 137q0 127 -73 203q-72 75 -189 75t-189 -75q-73 -76 -73 -203z" />
<glyph unicode="9" horiz-adv-x="950" d="M111 963q0 78 20 151q21 75 63 137q44 64 107 100q67 38 156 38q109 0 182 -62q71 -61 115 -161q42 -96 59 -226q16 -124 16 -258q0 -130 -17 -249q-18 -126 -61 -227t-119 -165t-192 -64q-108 0 -179 53q-71 52 -114 138l54 37q38 -74 91 -120t148 -46q99 0 160 62 t97 160q35 96 49 214q14 121 14 227v58q-17 -39 -46 -78q-32 -43 -70 -74q-42 -34 -89 -54q-52 -22 -106 -22q-72 0 -135 27q-61 26 -107 80q-46 53 -71 134q-25 79 -25 190zM180 963q0 -101 21 -170q22 -73 56 -114q37 -45 85 -65q47 -20 109 -20q52 0 97 22t85 60t69 85 q33 53 52 99q-5 70 -19 148q-16 86 -48 152q-36 73 -89 119q-56 48 -141 48q-73 0 -126 -33q-51 -32 -86 -85q-34 -52 -49 -116q-16 -69 -16 -130z" />
<glyph unicode=":" horiz-adv-x="425" d="M145 49q0 26 20 46t48 20t48 -20t20 -46q0 -28 -20 -48q-19 -19 -48 -19t-48 19q-20 20 -20 48zM145 936q0 28 20 48t48 20t48 -20t20 -48q0 -26 -20 -46t-48 -20t-48 20t-20 46z" />
<glyph unicode=";" horiz-adv-x="425" d="M119 -205q50 38 79 89t29 100q-2 -2 -6 -2h-10q-29 0 -47 19q-19 21 -19 48q0 25 19 46q18 20 47 20q31 0 56 -28q24 -27 24 -81q0 -77 -39 -145q-40 -70 -88 -103zM145 936q0 28 20 48t48 20t48 -20t20 -48q0 -26 -20 -46t-48 -20t-48 20t-20 46z" />
<glyph unicode="&#x3c;" horiz-adv-x="888" d="M59 664v43l770 403v-74l-686 -352l686 -348v-74z" />
<glyph unicode="=" horiz-adv-x="888" d="M59 451v61h770v-61h-770zM59 856v62h770v-62h-770z" />
<glyph unicode="&#x3e;" horiz-adv-x="888" d="M59 262v74l686 348l-686 352v74l770 -403v-43z" />
<glyph unicode="?" horiz-adv-x="788" d="M76 1237q52 71 134 112q80 40 185 40q69 0 130 -25q57 -23 101 -66q41 -39 64 -95q23 -55 23 -113q0 -77 -26 -135q-25 -56 -62 -102q-39 -48 -82 -84t-82 -78q-37 -41 -63 -84q-25 -43 -25 -101q0 -32 15 -63t42 -54l-47 -43q-41 38 -57 77q-17 42 -17 83q0 65 25 117 q23 47 62 91q36 40 81 79q50 43 81 79q40 47 63 95q24 51 24 123q0 46 -16 87q-15 39 -48 75q-30 33 -79 55q-44 20 -107 20q-101 0 -162 -36q-63 -37 -114 -101zM319 49q0 26 20 46t48 20t48 -20t20 -46q0 -28 -20 -48q-19 -19 -48 -19t-48 19q-20 20 -20 48z" />
<glyph unicode="@" horiz-adv-x="1384" d="M72 471q0 168 59 317q61 154 160 268q100 115 232 184t276 69q117 0 210 -43q95 -44 162 -121q67 -78 105 -186q37 -107 37 -238q0 -125 -26 -227q-25 -100 -66 -172q-40 -72 -94 -110q-53 -38 -105 -38q-74 0 -114 49t-40 115v12q-23 -33 -52 -64q-36 -37 -65 -57 q-39 -26 -77 -40q-40 -15 -86 -15q-54 0 -95 17q-43 18 -78 53q-34 34 -54 89q-19 53 -19 126q0 106 35 209q34 101 93 181q58 79 136 127t166 48q83 0 135 -50q51 -49 72 -118l27 131h61l-129 -606q-2 -14 -3 -22t-1 -19q0 -61 23 -85q24 -26 63 -26q24 0 66 28 q39 26 77 87q37 59 64 153q26 90 26 224q0 125 -33 218q-34 96 -95 166q-58 67 -144 105q-83 37 -184 37q-135 0 -253 -65q-120 -66 -210 -174q-92 -111 -144 -248q-53 -141 -53 -287q0 -126 37 -227q37 -102 104 -176q66 -74 156 -114q89 -40 197 -40q97 0 176 32 q75 30 147 85l31 -47q-79 -61 -172 -96q-88 -33 -190 -33q-119 0 -220 45t-174 126t-115 194q-42 114 -42 249zM410 459q0 -104 45 -167t133 -63q50 0 95 20t81 49q35 28 67 68q43 54 56 74l76 348q-8 31 -23 63q-16 33 -38 58q-24 27 -55 43q-32 17 -75 17q-80 0 -146 -48 q-67 -49 -115 -122t-75 -164q-26 -87 -26 -176z" />
<glyph unicode="A" horiz-adv-x="970" d="M35 0l411 1366h78l414 -1366h-72l-108 367h-543l-109 -367h-71zM231 428h508l-254 852z" />
<glyph unicode="B" horiz-adv-x="983" d="M164 0v1366h356q142 0 231 -89t89 -259q0 -128 -59 -208q-57 -78 -142 -105q45 -7 88 -39q41 -30 71 -77q28 -43 47 -104q17 -54 17 -116q0 -177 -87 -273t-247 -96h-364zM229 61h299q134 0 198 82q65 83 65 224q0 53 -16 112q-15 54 -47 99q-30 41 -82 68 q-50 26 -118 26h-299v-611zM229 733h291q65 0 113 23q47 23 77 60q28 36 44 90q14 49 14 112q0 60 -14 109q-16 55 -44 93q-29 39 -77 62t-113 23h-291v-572z" />
<glyph unicode="C" horiz-adv-x="1048" d="M121 682q0 150 35 282q34 128 98 224q62 94 154 147q93 54 202 54q124 0 209 -60q88 -62 146 -153l-58 -35q-51 88 -124 136q-76 50 -173 50q-94 0 -171 -48q-76 -48 -132 -134q-54 -84 -85 -205q-29 -115 -29 -258q0 -142 29 -257q30 -120 85 -204q55 -85 132 -135 q76 -49 171 -49q105 0 180 57q73 55 121 150l58 -33q-62 -108 -148 -172q-87 -64 -211 -64q-109 0 -202 54q-91 53 -154 148q-64 95 -98 224q-35 131 -35 281z" />
<glyph unicode="D" horiz-adv-x="1095" d="M164 0v1366h299q124 0 221 -53q95 -52 161 -146q63 -90 97 -217q33 -125 33 -268q0 -144 -33 -269q-33 -126 -97 -216q-65 -93 -161 -145q-95 -52 -221 -52h-299zM229 61h234q109 0 193 49q85 49 138 132q56 87 82 197q27 114 27 243q0 130 -27 242q-26 108 -82 197 q-52 82 -138 134q-83 50 -193 50h-234v-1244z" />
<glyph unicode="E" horiz-adv-x="909" d="M164 0v1366h633v-61h-568v-572h553v-61h-553v-611h568v-61h-633z" />
<glyph unicode="F" horiz-adv-x="884" d="M164 0v1366h633v-61h-568v-572h553v-61h-553v-672h-65z" />
<glyph unicode="G" horiz-adv-x="1110" d="M121 682q0 156 35 288q34 130 99 223q64 93 155 144q92 52 200 52q129 0 215 -59q88 -60 152 -152l-53 -35q-52 85 -131 135q-77 49 -183 49q-97 0 -173 -49q-77 -50 -131 -135t-84 -205q-29 -115 -29 -256q0 -140 29 -255q30 -118 84 -205q53 -86 131 -136 q76 -49 173 -49q105 0 182 44q75 42 119 99v414h-385v61h451v-495q-64 -86 -161 -137q-95 -50 -206 -50q-109 0 -200 53t-155 145q-65 93 -99 223q-35 132 -35 288z" />
<glyph unicode="H" horiz-adv-x="1116" d="M164 0v1366h65v-633h658v633h65v-1366h-65v672h-658v-672h-65z" />
<glyph unicode="I" horiz-adv-x="393" d="M164 0v1366h65v-1366h-65z" />
<glyph unicode="J" horiz-adv-x="782" d="M23 121l53 47q39 -58 96 -95q56 -36 129 -36q119 0 185 72q67 73 67 204v1053h65v-1053q0 -85 -24 -150t-68 -106q-43 -40 -100 -61t-125 -21q-90 0 -155 34q-67 35 -123 112z" />
<glyph unicode="K" horiz-adv-x="966" d="M164 0v1366h65v-782l559 782h84l-475 -653l518 -713h-84l-471 664l-131 -181v-483h-65z" />
<glyph unicode="L" horiz-adv-x="825" d="M164 0v1366h65v-1305h527v-61h-592z" />
<glyph unicode="M" horiz-adv-x="1308" d="M164 0v1366h106l385 -1182l385 1182h105v-1366h-66v1268l-409 -1268h-29l-412 1268v-1268h-65z" />
<glyph unicode="N" horiz-adv-x="1112" d="M164 0v1366h65l654 -1206v1206h65v-1366h-65l-654 1219v-1219h-65z" />
<glyph unicode="O" horiz-adv-x="1187" d="M121 682q0 146 30 273q31 130 90 225t148 152t205 57q117 0 205 -57q89 -57 148 -152t90 -225q30 -127 30 -273t-30 -273q-31 -130 -90 -225t-148 -152q-88 -57 -205 -57q-116 0 -205 57t-148 152t-90 225q-30 127 -30 273zM193 682q0 -137 26 -251q26 -116 77 -205 q49 -86 125 -138q75 -51 173 -51t173 51q76 52 125 138q51 89 77 205q26 114 26 251q0 139 -26 252q-26 115 -77 205q-49 88 -125 138t-173 50t-173 -50t-125 -138q-51 -90 -77 -205q-26 -113 -26 -252z" />
<glyph unicode="P" horiz-adv-x="917" d="M164 0v1366h340q82 0 147 -31q63 -30 106 -84q42 -52 63 -124q22 -74 22 -148q0 -75 -22 -149q-21 -71 -64 -123q-45 -55 -107 -84q-65 -31 -145 -31h-275v-592h-65zM229 653h273q129 0 198 92q70 93 70 234q0 140 -70 233t-198 93h-273v-652z" />
<glyph unicode="Q" horiz-adv-x="1187" d="M121 682q0 146 30 273q31 130 90 225t148 152t205 57q117 0 205 -57q89 -57 148 -152t90 -225q30 -127 30 -273q0 -174 -42 -321q-41 -144 -126 -244l94 -142l-51 -34l-88 131q-55 -48 -118 -72q-67 -25 -142 -25q-116 0 -205 57t-148 152t-90 225q-30 127 -30 273z M193 682q0 -137 26 -251q26 -116 77 -205q49 -86 125 -138q75 -51 173 -51q68 0 121 23q56 24 100 67l-180 270l53 37l170 -258q69 92 103 221t34 285q0 139 -26 252q-26 115 -77 205q-49 88 -125 138t-173 50t-173 -50t-125 -138q-51 -90 -77 -205q-26 -113 -26 -252z" />
<glyph unicode="R" horiz-adv-x="968" d="M164 0v1366h338q70 0 134 -26q62 -25 108 -74q47 -50 72 -121q26 -73 26 -166q0 -94 -26 -164q-26 -72 -66 -117q-40 -46 -97 -72q-56 -26 -112 -30l317 -596h-80l-309 592h-240v-592h-65zM229 653h273q129 0 198 92q70 93 70 234q0 140 -70 233t-198 93h-273v-652z" />
<glyph unicode="S" horiz-adv-x="915" d="M82 143l51 50q46 -63 127 -110q79 -46 182 -46q81 0 138 24q55 23 94 65q35 38 54 91q17 48 17 107q0 103 -46 168t-115 113q-68 47 -150 86q-79 37 -149 86q-69 48 -116 116q-46 67 -46 172q0 74 28 136t75 103q48 42 110 63q64 22 129 22q105 0 184 -36t135 -102 l-45 -49q-51 64 -122 95q-69 30 -152 30q-56 0 -106 -18q-48 -18 -88 -54q-38 -35 -59 -83q-22 -50 -22 -107q0 -87 47 -145q50 -61 115 -102q63 -40 150 -84q81 -41 149 -93q69 -53 116 -128q46 -74 46 -189q0 -66 -20 -126q-21 -62 -66 -112t-115 -80q-71 -31 -170 -31 q-117 0 -209 47q-93 47 -151 121z" />
<glyph unicode="T" horiz-adv-x="866" d="M57 1305v61h752v-61h-344v-1305h-66v1305h-342z" />
<glyph unicode="U" horiz-adv-x="1093" d="M164 418v948h65v-948q0 -192 83 -287q82 -94 235 -94q152 0 234 94q83 95 83 287v948h66v-948q0 -218 -99 -330q-99 -113 -284 -113q-186 0 -285 113q-98 111 -98 330z" />
<glyph unicode="V" horiz-adv-x="970" d="M35 1366h71l379 -1280l381 1280h72l-414 -1366h-78z" />
<glyph unicode="W" horiz-adv-x="1374" d="M51 1366h72l264 -1251l266 1251h70l266 -1251l264 1251h72l-297 -1366h-78l-262 1223l-262 -1223h-78z" />
<glyph unicode="X" horiz-adv-x="968" d="M35 0l414 696l-392 670h82l346 -604l346 604h82l-391 -668l414 -698h-80l-371 635l-370 -635h-80z" />
<glyph unicode="Y" horiz-adv-x="954" d="M25 1366h77l375 -700l377 700h78l-422 -774v-592h-66v592z" />
<glyph unicode="Z" horiz-adv-x="909" d="M92 0v63l639 1242h-639v61h711v-61l-641 -1244h655v-61h-725z" />
<glyph unicode="[" horiz-adv-x="382" d="M70 -389v1778h278v-62h-217v-1655h217v-61h-278z" />
<glyph unicode="\" horiz-adv-x="456" d="M2 1407h61l394 -1448h-62z" />
<glyph unicode="]" horiz-adv-x="382" d="M35 -328h217v1655h-217v62h278v-1778h-278v61z" />
<glyph unicode="^" horiz-adv-x="765" d="M39 682l317 684h54l317 -684h-68l-276 625l-277 -625h-67z" />
<glyph unicode="_" horiz-adv-x="864" d="M-6 -82h876v-61h-876v61z" />
<glyph unicode="`" horiz-adv-x="331" d="M0 1434h88l244 -295h-56z" />
<glyph unicode="a" horiz-adv-x="876" d="M106 305q0 75 23 136q23 63 62 104q37 40 94 66q53 24 114 24q75 0 143 -31q69 -31 120 -106v215q0 119 -58 183q-56 62 -162 62q-76 0 -134 -29q-59 -30 -120 -104l-41 45q68 75 135 109q70 35 160 35q136 0 208 -74q73 -75 73 -225v-715h-61v115q-52 -75 -120 -108 q-67 -32 -143 -32q-61 0 -114 24q-55 25 -94 67t-62 103t-23 136zM174 305q0 -55 15 -105t45 -87t74 -60q43 -22 100 -22q76 0 143 36q68 36 111 115v246q-44 80 -111 116t-143 36q-56 0 -100 -23q-46 -24 -74 -59q-30 -38 -45 -87t-15 -106z" />
<glyph unicode="b" horiz-adv-x="940" d="M156 0v1366h61v-535q46 90 117 136q73 47 151 47q85 0 149 -39q62 -37 107 -109q43 -68 66 -165q22 -92 22 -207q0 -116 -22 -208q-23 -95 -66 -164q-44 -70 -107 -108q-64 -39 -149 -39q-82 0 -155 52t-113 129v-156h-61zM217 231q14 -34 44 -75q26 -36 63 -65 q36 -28 76 -44q41 -16 85 -16q71 0 124 38q50 36 86 101q33 60 50 147t17 177q0 91 -17 178t-50 147q-36 67 -86 102q-52 37 -124 37q-45 0 -85 -17q-42 -18 -76 -46q-38 -32 -63 -66q-30 -41 -44 -75v-523z" />
<glyph unicode="c" horiz-adv-x="806" d="M111 496q0 106 24 200q23 91 72 165q47 71 117 112t159 41q91 0 149 -35q55 -33 105 -94l-43 -39q-46 61 -98 87q-50 25 -113 25q-79 0 -135 -37q-57 -37 -95 -103t-56 -147q-19 -87 -19 -175q0 -85 19 -174q18 -83 56 -149q37 -63 95 -103q57 -39 135 -39q63 0 113 25 q51 26 98 89l43 -41q-51 -65 -105 -96q-57 -33 -149 -33q-89 0 -159 41t-117 112q-49 74 -72 166q-24 94 -24 202z" />
<glyph unicode="d" horiz-adv-x="940" d="M111 494q0 115 22 207q23 97 66 165q45 72 107 109q64 39 149 39q78 0 151 -47q71 -46 117 -136v535h61v-1366h-61v156q-40 -77 -113 -129t-155 -52q-85 0 -149 39q-63 38 -107 108q-43 69 -66 164q-22 92 -22 208zM178 494q0 -90 17 -177t50 -147q36 -65 86 -101 q53 -38 124 -38q44 0 85 16q40 16 76 44q37 29 63 65q30 41 44 75v523q-14 34 -44 75q-25 34 -63 66q-34 28 -76 46q-40 17 -85 17q-72 0 -124 -37q-50 -35 -86 -102q-33 -60 -50 -147t-17 -178z" />
<glyph unicode="e" horiz-adv-x="940" d="M111 496q0 106 24 201q24 93 72 165q48 71 115 111q68 41 153 41q94 0 163 -42q70 -42 113 -114q43 -71 64 -166q21 -94 21 -196v-21h-658q1 -92 25 -177q22 -79 63 -140q39 -57 101 -93q59 -34 135 -34q149 0 254 145l47 -35q-56 -76 -129 -121q-72 -45 -172 -45 q-96 0 -167 40q-74 42 -123 110q-50 70 -76 165q-25 93 -25 206zM178 530h592q0 74 -16 148q-16 73 -53 138q-36 63 -92 103q-55 39 -136 39q-79 0 -132 -40q-53 -39 -90 -105q-35 -60 -53 -139q-19 -79 -20 -144z" />
<glyph unicode="f" horiz-adv-x="458" d="M49 934v55h133v162q0 109 55 173q53 62 150 62q44 0 74 -11q33 -12 67 -46l-39 -49q-44 51 -102 51q-71 0 -107 -47q-36 -46 -36 -133v-162h172v-55h-172v-934h-62v934h-133z" />
<glyph unicode="g" horiz-adv-x="940" d="M111 492q0 114 22 208q23 98 66 166q45 72 107 109q64 39 149 39q78 0 151 -47q71 -46 117 -136v158h61v-1036q0 -95 -24 -162q-23 -64 -69 -110q-43 -43 -105 -63q-60 -19 -135 -19q-94 0 -163 25q-71 26 -138 97l43 52q95 -119 258 -119q118 0 195 71t77 228v203 q-41 -78 -113 -131q-74 -54 -155 -54q-85 0 -149 39q-62 37 -107 109q-43 68 -66 165q-22 92 -22 208zM178 492q0 -90 17 -178t50 -148q36 -65 86 -101q53 -38 124 -38q45 0 85 17q42 18 76 46q38 32 63 66q30 41 44 75v523q-14 34 -44 75q-25 34 -63 66q-34 28 -76 46 q-40 17 -85 17q-72 0 -124 -37q-50 -36 -86 -103q-33 -62 -50 -148q-17 -87 -17 -178z" />
<glyph unicode="h" horiz-adv-x="890" d="M156 0v1366h61v-528q46 71 122 123q77 53 163 53q116 0 176 -60q59 -59 59 -202v-752h-61v752q0 116 -49 161t-133 45q-86 0 -161 -57t-116 -131v-770h-61z" />
<glyph unicode="i" horiz-adv-x="370" d="M127 1219q0 24 18 42q17 17 41 17q25 0 42 -17q18 -18 18 -42t-18 -42t-42 -18q-23 0 -41 18t-18 42zM156 0v989h61v-989h-61z" />
<glyph unicode="j" horiz-adv-x="370" d="M-125 -324l47 39q17 -25 44 -43t63 -18q53 0 90 36t37 134v1165h61v-1165q0 -127 -52 -176t-136 -49q-98 0 -154 77zM127 1219q0 24 18 42q17 17 41 17q25 0 42 -17q18 -18 18 -42t-18 -42t-42 -18q-23 0 -41 18t-18 42z" />
<glyph unicode="k" horiz-adv-x="841" d="M156 0v1366h61v-989l506 612h76l-373 -446l365 -543h-76l-328 498l-170 -207v-291h-61z" />
<glyph unicode="l" horiz-adv-x="370" d="M156 0v1366h61v-1366h-61z" />
<glyph unicode="m" horiz-adv-x="1325" d="M156 0v989h61v-151q19 34 43 61q27 30 62 56q34 25 75 42q42 17 84 17q100 0 149 -52q51 -54 58 -128q37 69 112 125q73 55 158 55q107 0 160 -62t53 -192v-760h-61v760q0 198 -162 198q-38 0 -75 -15q-34 -14 -71 -41q-36 -26 -62 -60q-30 -38 -46 -72v-770h-61v760 q0 198 -162 198q-37 0 -74 -15q-33 -13 -70 -42q-38 -30 -63 -60q-31 -37 -47 -71v-770h-61z" />
<glyph unicode="n" horiz-adv-x="890" d="M156 0v989h61v-151q46 71 122 123q77 53 163 53q116 0 176 -62q59 -60 59 -202v-750h-61v750q0 116 -49 162t-133 46q-86 0 -161 -57t-116 -131v-770h-61z" />
<glyph unicode="o" d="M111 496q0 106 22 198q23 94 69 165q48 72 113 113q67 42 158 42t158 -42q65 -41 113 -113q46 -71 69 -165q23 -97 23 -198q0 -103 -23 -200q-23 -96 -69 -166q-48 -72 -113 -113q-67 -42 -158 -42t-158 42q-65 41 -113 113q-46 70 -69 166q-22 92 -22 200zM178 496 q0 -86 18 -170q19 -87 53 -150q35 -64 91 -105q55 -40 133 -40t133 40q56 41 91 105q36 66 54 150q17 79 17 170t-17 169q-18 82 -54 148t-91 106q-53 39 -133 39t-133 -39q-55 -40 -91 -106q-35 -63 -53 -148q-18 -83 -18 -169z" />
<glyph unicode="p" horiz-adv-x="935" d="M156 -377v1366h61v-153q41 78 113 128q73 50 155 50q84 0 149 -38q61 -36 107 -108q43 -68 66 -165q22 -92 22 -207q0 -116 -22 -208q-23 -97 -66 -165q-45 -72 -107 -109q-64 -39 -149 -39q-78 0 -151 49q-72 48 -117 136v-537h-61zM217 236q15 -36 44 -76 q25 -34 63 -66q34 -28 76 -46q40 -17 85 -17q71 0 124 38q50 36 86 101q33 60 50 148t17 178q0 91 -17 178t-50 147q-36 65 -86 101t-124 36q-44 0 -85 -16q-40 -16 -76 -44q-39 -30 -63 -64q-29 -40 -44 -76v-522z" />
<glyph unicode="q" horiz-adv-x="935" d="M106 496q0 110 23 207t66 165q46 72 107 108q65 38 149 38q82 0 155 -50q72 -50 113 -128v153h61v-1366h-61v537q-45 -88 -117 -136q-74 -49 -151 -49q-85 0 -149 39q-62 37 -107 109q-43 68 -66 165t-23 208zM174 496q0 -95 16 -178q16 -85 51 -148q36 -65 86 -101 q53 -38 124 -38q45 0 85 17q42 18 76 46q38 32 63 66q29 40 44 76v522q-15 36 -44 76q-24 34 -63 64q-36 28 -76 44q-41 16 -85 16q-74 0 -124 -36t-86 -101q-35 -63 -51 -147q-16 -81 -16 -178z" />
<glyph unicode="r" horiz-adv-x="544" d="M156 0v989h61v-176q52 87 121 141t166 54v-74q-14 2 -20 2h-19q-42 0 -77 -17q-36 -17 -71 -46q-29 -24 -59 -62q-24 -30 -41 -70v-741h-61z" />
<glyph unicode="s" horiz-adv-x="749" d="M74 115l47 45q41 -58 100 -93q60 -36 146 -36q100 0 163 57q64 58 64 150q0 71 -37 117q-38 48 -92 78q-65 37 -119 60q-64 28 -119 63q-54 35 -92 87q-37 50 -37 133q0 103 76 170q77 68 201 68q90 0 157 -35q66 -35 107 -92l-43 -41q-39 59 -93 85q-57 27 -128 27 q-102 0 -158 -52q-57 -52 -57 -130q0 -68 37 -109q40 -45 92 -73q63 -34 119 -58t118 -66q53 -36 92 -92q37 -53 37 -140q0 -113 -76 -188q-77 -75 -212 -75q-91 0 -163 32q-70 31 -130 108z" />
<glyph unicode="t" horiz-adv-x="479" d="M39 934v55h135v271h62v-271h172v-55h-172v-768q0 -65 20 -99q21 -36 68 -36q32 0 55 13q25 14 41 36l39 -43q-27 -29 -57 -45q-31 -17 -78 -17q-78 0 -114 50q-36 49 -36 141v768h-135z" />
<glyph unicode="u" horiz-adv-x="890" d="M156 240v749h61v-749q0 -116 48 -163q47 -46 134 -46q84 0 160 55q77 56 117 129v774h61v-989h-61v147q-49 -71 -123 -121q-76 -51 -162 -51q-116 0 -176 60q-59 59 -59 205z" />
<glyph unicode="v" horiz-adv-x="768" d="M29 989h69l287 -917l287 917h69l-321 -989h-72z" />
<glyph unicode="w" horiz-adv-x="1216" d="M43 989h68l227 -893l240 893h61l240 -893l227 893h68l-267 -989h-55l-244 899l-243 -899h-56z" />
<glyph unicode="x" horiz-adv-x="776" d="M43 0l311 506l-293 483h74l254 -432l254 432h74l-293 -483l309 -506h-74l-270 457l-272 -457h-74z" />
<glyph unicode="y" horiz-adv-x="768" d="M29 989h69l287 -911l287 911h69l-403 -1233q-52 -157 -178 -157q-49 0 -80 14l12 55q17 -8 35 -11q21 -3 33 -3q45 0 71 25q28 27 52 98l69 200z" />
<glyph unicode="z" horiz-adv-x="759" d="M104 0v55l476 879h-476v55h543v-55l-475 -879h483v-55h-551z" />
<glyph unicode="{" horiz-adv-x="434" d="M14 469v61q53 0 80 45t27 103v500q0 49 15 88t42 66t59 42q31 15 66 15h96v-62h-96q-49 0 -85 -42t-36 -107v-500q0 -68 -20 -111q-21 -44 -72 -67q51 -22 72 -68q20 -43 20 -110v-500q0 -66 36 -108t85 -42h96v-61h-96q-37 0 -66 14q-32 15 -59 42q-26 26 -42 67 q-15 39 -15 88v500q0 57 -27 102t-80 45z" />
<glyph unicode="|" horiz-adv-x="389" d="M164 -41v1448h61v-1448h-61z" />
<glyph unicode="}" horiz-adv-x="434" d="M35 -328h96q49 0 85 42t36 108v500q0 67 20 110q21 46 72 68q-51 23 -72 67q-20 43 -20 111v500q0 65 -36 107t-85 42h-96v62h96q33 0 66 -15q31 -14 59 -42q27 -27 42 -66t15 -88v-500q0 -58 27 -103t80 -45v-61q-53 0 -80 -45t-27 -102v-500q0 -49 -15 -88 q-16 -41 -42 -67q-28 -28 -59 -42t-66 -14h-96v61z" />
<glyph unicode="~" horiz-adv-x="892" d="M57 893q6 70 22 168q14 86 40 150q28 69 67 109q41 42 105 42q54 0 88 -31q33 -30 54 -77t36 -100q17 -61 32 -100q19 -49 40 -77q23 -31 63 -31q78 0 114 106q35 101 56 314l62 -6q-6 -77 -20 -169q-14 -85 -39 -153q-26 -68 -67 -109q-42 -42 -106 -42q-54 0 -88 31 q-33 30 -54 76q-20 45 -36 100q-18 62 -32 99q-19 50 -41 77q-24 30 -62 30q-78 0 -115 -106q-36 -101 -57 -311z" />
<glyph unicode="&#xa1;" horiz-adv-x="425" d="M145 940q0 28 20 48t48 20t48 -20t20 -48q0 -26 -20 -46t-48 -20t-48 20t-20 46zM170 -377l23 1036h40l23 -1036h-86z" />
<glyph unicode="&#xa2;" horiz-adv-x="806" d="M111 496q0 100 21 189q21 87 64 158q41 68 102 112q62 45 140 55v147h62v-143q86 -5 137 -38q56 -36 100 -91l-43 -39q-44 58 -91 83q-46 24 -103 29v-927q57 5 103 29q48 25 91 85l43 -41q-44 -57 -100 -92q-52 -32 -137 -37v-180h-62v185q-80 11 -140 54 q-59 43 -102 113q-43 71 -64 159t-21 190zM178 496q0 -79 16 -162q15 -78 48 -141q34 -66 82 -106q49 -42 114 -52v919q-63 -12 -114 -53q-49 -40 -82 -103t-48 -141q-16 -83 -16 -161z" />
<glyph unicode="&#xa3;" horiz-adv-x="854" d="M49 547v61h234q-20 29 -59 79q-32 41 -58 86q-25 43 -44 103q-18 57 -18 132q0 71 24 140t68 122q45 54 108 85t147 31q104 0 182 -57q77 -56 115 -149l-54 -35q-27 67 -87 124q-59 56 -156 56q-55 0 -104 -21q-50 -21 -89 -62q-38 -39 -62 -100q-24 -60 -24 -136 q0 -74 18 -129q16 -49 47 -101q24 -40 59 -85q32 -41 58 -83h236v-61h-203q7 -19 17 -61q8 -34 8 -70q0 -104 -48 -183q-49 -81 -116 -133q46 21 96 21q44 0 77 -13t64 -30q21 -12 62 -30q29 -13 67 -13q56 0 104 27q44 25 68 57l39 -53q-33 -39 -91 -66t-124 -27 q-56 0 -91 15q-38 16 -60 30q-23 14 -57 31q-28 14 -78 14q-42 0 -92 -21q-47 -20 -105 -56l-33 63q129 67 191 164q63 99 63 203q0 36 -8 70q-8 32 -23 61h-268z" />
<glyph unicode="&#xa4;" horiz-adv-x="948" d="M27 1169l45 43l157 -159q45 51 106 80q59 28 138 28t138 -28q61 -29 106 -80l157 159l46 -45l-166 -163q40 -65 61 -148q21 -82 21 -174q0 -189 -82 -322l166 -163l-46 -45l-157 157q-44 -49 -106 -78q-59 -28 -138 -28t-139 28q-61 28 -107 82l-155 -155l-43 43l161 161 q-40 66 -60 147q-19 79 -19 173q0 95 20 174q20 80 62 148zM178 682q0 -78 18 -152q19 -76 53 -132q36 -58 91 -94t133 -36q77 0 133 36q55 36 91 94t54 132q17 69 17 152q0 80 -17 151q-18 75 -54 132q-36 58 -91 93q-56 36 -133 36q-78 0 -133 -36q-55 -35 -91 -93 q-34 -54 -53 -132q-18 -75 -18 -151z" />
<glyph unicode="&#xa5;" horiz-adv-x="954" d="M25 1366h77l375 -700l377 700h78l-389 -713h370v-61h-403v-266h403v-62h-403v-264h-66v264h-403v62h403v266h-403v61h369z" />
<glyph unicode="&#xa6;" horiz-adv-x="389" d="M164 -41v647h61v-647h-61zM164 760v647h61v-647h-61z" />
<glyph unicode="&#xa7;" horiz-adv-x="749" d="M74 -27l47 45q34 -48 93 -88q61 -41 153 -41q97 0 162 59t65 148q0 72 -37 118q-38 48 -92 78q-58 33 -119 59q-60 26 -119 64q-54 35 -92 87q-37 50 -37 133q0 87 60 153q59 65 164 86q-108 56 -167 119q-57 61 -57 156q0 102 74 170q73 67 197 67q94 0 159 -34t111 -92 l-45 -41q-45 64 -104 89q-55 23 -121 23q-90 0 -150 -51q-59 -50 -59 -133q0 -69 37 -110q38 -43 92 -72q63 -34 119 -58q64 -27 118 -64q54 -36 92 -93q37 -55 37 -142q0 -77 -42 -143q-41 -65 -134 -100q85 -52 131 -115q45 -61 45 -154q0 -117 -80 -189q-81 -73 -208 -73 q-111 0 -176 38q-64 37 -117 101zM160 633q0 -46 19 -78q19 -33 54 -60q37 -29 83 -52q19 -9 58.5 -27.5t47.5 -22.5q172 78 172 217q0 53 -20 91t-50 65q-28 25 -66 44q-14 7 -69 32q-70 -16 -113 -37q-43 -22 -70 -50q-25 -26 -36 -60q-10 -30 -10 -62z" />
<glyph unicode="&#xa8;" horiz-adv-x="516" d="M35 1225q0 23 17 40t40 17t40 -17q18 -18 18 -40t-18 -40t-40 -18t-40 18q-17 17 -17 40zM367 1225q0 23 17 40t40 17t40 -17t17 -40t-17 -40q-18 -18 -40 -18t-40 18q-17 17 -17 40z" />
<glyph unicode="&#xa9;" horiz-adv-x="1593" d="M90 684q0 149 55 275q56 129 152 225q95 95 225 151t275 56q146 0 275 -56t224 -151q96 -96 152 -225q55 -126 55 -275q0 -146 -55 -274q-56 -130 -152 -226q-95 -95 -224 -151t-275 -56q-145 0 -275 56t-225 151q-96 96 -152 226q-55 128 -55 274zM143 684 q0 -133 52 -254q51 -119 140 -208t208 -140q118 -51 254 -51q135 0 254 51q118 51 207 140q90 90 141 208t51 254t-51 254t-141 208q-89 89 -207 140t-254 51t-254 -51q-119 -51 -208 -140t-140 -208q-52 -121 -52 -254zM371 686q0 98 33 175q34 79 92 139q57 58 135 93 q75 33 168 33q99 0 168 -33q72 -35 125 -98l-41 -41q-41 53 -111 85t-141 32q-73 0 -139 -27q-67 -27 -117 -76q-52 -51 -82 -122q-31 -74 -31 -160q0 -82 31 -156q29 -69 82 -122q52 -52 117 -80q67 -29 139 -29q73 0 142 33t110 86l41 -41q-53 -63 -126 -99 q-69 -34 -167 -34q-91 0 -168 34q-79 35 -135 94q-58 61 -92 141q-33 77 -33 173z" />
<glyph unicode="&#xaa;" horiz-adv-x="649" d="M86 866q0 100 57 157q56 56 144 56q55 0 99 -20t83 -68v133q0 78 -44 114t-106 36q-41 0 -86 -18q-46 -19 -86 -70l-34 43q45 50 95 74q49 24 116 24q200 0 200 -217v-442h-55v73q-39 -48 -83 -68q-49 -22 -99 -22q-87 0 -144 59q-57 58 -57 156zM145 866q0 -71 41 -121 q40 -49 113 -49q50 0 96 23t74 72v149q-28 49 -74 72q-44 22 -96 22q-73 0 -113 -49q-41 -50 -41 -119z" />
<glyph unicode="&#xab;" horiz-adv-x="653" d="M61 498l256 362h74l-256 -362l256 -369h-74zM262 498l256 362h74l-256 -362l256 -369h-74z" />
<glyph unicode="&#xac;" horiz-adv-x="888" d="M59 856v62h770v-467h-65v405h-705z" />
<glyph unicode="&#xad;" horiz-adv-x="542" d="M61 465v61h420v-61h-420z" />
<glyph unicode="&#xae;" horiz-adv-x="1011" d="M72 952q0 94 33 170q36 82 94 139q59 58 138 92q76 33 169 33q94 0 170 -33q81 -35 138 -92q56 -56 92 -139q34 -78 34 -170q0 -91 -34 -169q-34 -79 -92 -138q-56 -57 -138 -93q-78 -34 -170 -34q-91 0 -169 34q-79 34 -138 93q-60 60 -94 138q-33 76 -33 169zM125 952 q0 -78 30 -147q31 -71 82 -122q53 -53 120 -82q69 -30 149 -30q79 0 148 30t121 82q51 51 82 122q30 69 30 147q0 81 -30 150q-31 72 -82 121q-53 51 -121 81q-67 29 -148 29q-82 0 -149 -29q-66 -29 -120 -81q-51 -49 -82 -121q-30 -69 -30 -150zM342 702v498h203 q63 0 107 -41t44 -110q0 -42 -15 -70q-14 -26 -37 -46q-19 -17 -43 -25q-20 -7 -32 -7l133 -199h-75l-129 197h-97v-197h-59zM401 956h144q33 0 61 27q29 27 29 66q0 41 -29 68q-30 28 -61 28h-144v-189z" />
<glyph unicode="&#xaf;" horiz-adv-x="618" d="M0 1190v55h618v-55h-618z" />
<glyph unicode="&#xb0;" horiz-adv-x="559" d="M53 1159q0 47 18 88q19 43 48 72q31 31 71 49t89 18q47 0 88 -18q40 -18 71 -49t49 -72q19 -43 19 -88t-19 -88q-18 -41 -49 -72q-30 -30 -71 -48q-38 -17 -88 -17q-51 0 -89 17q-41 18 -71 48q-29 29 -48 72q-18 41 -18 88zM115 1159q0 -68 48 -116t116 -48q67 0 116 48 t49 116t-49 117t-116 49q-68 0 -116 -49q-48 -50 -48 -117z" />
<glyph unicode="&#xb1;" horiz-adv-x="888" d="M59 61v62h770v-62h-770zM59 659v62h353v381h65v-381h352v-62h-352v-393h-65v393h-353z" />
<glyph unicode="&#xb2;" horiz-adv-x="634" d="M90 862v49q72 81 170 191q87 98 124 147q53 70 76 121q25 54 25 111q0 82 -50 121q-48 38 -111 38q-65 0 -111 -28q-48 -29 -76 -80l-45 35q37 59 96 93t138 34q39 0 81 -14q40 -13 70 -39q32 -27 50 -65q20 -42 20 -95q0 -58 -26 -118q-25 -58 -74 -125 q-46 -63 -117 -145q-37 -43 -158 -178h377v-53h-459z" />
<glyph unicode="&#xb3;" horiz-adv-x="634" d="M78 985l45 33q28 -50 77 -84q48 -33 113 -33q85 0 132 48q47 49 47 134q0 47 -17 83q-16 34 -43 55q-26 20 -60 29q-38 10 -69 10h-37q-9 0 -24 -3v56q10 -2 23 -2h36q72 0 126 39t54 125q0 83 -48 124q-49 41 -120 41q-63 0 -105 -27t-77 -79l-45 35q35 56 94 90 q61 35 135 35q91 0 159 -54q67 -53 67 -161q0 -43 -15 -76q-14 -31 -36 -56q-21 -24 -48 -39q-31 -17 -53 -22q29 -5 53 -18q32 -17 54 -40q25 -26 41 -63q16 -36 16 -84q0 -101 -60 -167t-178 -66q-87 0 -148 41t-89 96z" />
<glyph unicode="&#xb4;" horiz-adv-x="331" d="M0 1139l244 295h88l-277 -295h-55z" />
<glyph unicode="&#xb5;" horiz-adv-x="913" d="M156 -377v1366h61v-749q0 -114 51 -163q52 -50 138 -50q40 0 80 15t75 42q40 31 65 60q29 33 50 71v774h61v-823q0 -62 20 -99q19 -36 68 -36q16 0 35 4l6 -55q-23 -5 -41 -5q-76 0 -111 47q-33 45 -38 125q-45 -69 -117 -121q-71 -51 -153 -51t-126 28q-41 26 -63 67 v-447h-61z" />
<glyph unicode="&#xb6;" horiz-adv-x="919" d="M55 1014q0 72 28 137q27 63 76 112q48 48 111 75q65 28 138 28h323v-1571h-61v1510h-201v-1510h-61v867q-75 0 -138 27q-61 26 -111 76q-49 49 -76 112q-28 65 -28 137z" />
<glyph unicode="&#xb7;" horiz-adv-x="425" d="M145 502q0 26 20 46q19 19 48 19t48 -19q20 -20 20 -46q0 -28 -20 -48t-48 -20t-48 20t-20 48z" />
<glyph unicode="&#xb8;" horiz-adv-x="350" d="M0 -326l29 54q37 -32 67 -43q36 -13 72 -13q48 0 86 27q37 27 37 74q0 38 -20 61t-58 23q-47 0 -76 -35l-45 26l64 175h61l-53 -144q18 15 32 18q20 5 35 5q50 0 85 -35q34 -34 34 -94q0 -69 -52 -112q-53 -44 -130 -44q-54 0 -96 16t-72 41z" />
<glyph unicode="&#xb9;" horiz-adv-x="391" d="M41 1501l172 180h55v-819h-61v737l-127 -139z" />
<glyph unicode="&#xba;" horiz-adv-x="694" d="M88 989q0 73 17 131q18 62 51 108q31 44 81 72q48 27 109 27q64 0 112 -27q50 -28 81 -72t50 -108q17 -58 17 -131q0 -71 -17 -129q-18 -62 -50 -107q-34 -47 -81 -74q-50 -28 -112 -28q-59 0 -109 28q-47 27 -81 74q-33 47 -51 107q-17 58 -17 129zM150 989 q0 -55 12 -106q11 -47 37 -91q24 -40 61 -64q36 -23 86 -23q53 0 89 23q40 26 63 64q24 41 36 91q11 47 11 106q0 60 -11 107q-12 51 -36 90q-22 36 -63 62q-37 24 -89 24q-48 0 -86 -24t-61 -62q-26 -42 -37 -90q-12 -51 -12 -107z" />
<glyph unicode="&#xbb;" horiz-adv-x="653" d="M61 129l256 369l-256 362h74l256 -362l-256 -369h-74zM262 129l256 369l-256 362h74l256 -362l-256 -369h-74z" />
<glyph unicode="&#xbc;" horiz-adv-x="1259" d="M41 1186l172 180h55v-819h-61v737l-127 -139zM190 0l713 1366h72l-715 -1366h-70zM694 231v56l320 532h78v-534h102v-54h-102v-231h-60v231h-338zM754 285h278v465z" />
<glyph unicode="&#xbd;" horiz-adv-x="1331" d="M41 1186l172 180h55v-819h-61v737l-127 -139zM190 0l713 1366h72l-715 -1366h-70zM786 0v49q72 81 170 191q87 98 124 147q53 70 76 121q26 57 26 110q0 82 -50 121q-49 39 -112 39q-65 0 -111 -28t-75 -80l-46 35q36 58 97 93q57 33 137 33q42 0 81 -13q41 -14 71 -39 q32 -27 50 -65q19 -39 19 -96q0 -60 -25 -117q-25 -58 -74 -125q-45 -62 -118 -146q-8 -9 -158 -177h377v-53h-459z" />
<glyph unicode="&#xbe;" horiz-adv-x="1425" d="M78 670l45 32q28 -50 77 -84q47 -32 113 -32q85 0 132 48q47 49 47 134q0 47 -17 83q-16 33 -43 54q-28 22 -60 30q-34 9 -69 9h-37q-14 0 -24 -2v55q10 -2 23 -2h36q72 0 126 39t54 125q0 85 -48 125q-49 41 -120 41q-61 0 -105 -28q-43 -28 -77 -78l-45 34q35 56 94 90 q61 35 135 35q92 0 159 -53t67 -162q0 -43 -15 -76q-14 -31 -36 -56q-21 -24 -48 -39q-28 -15 -53 -21q26 -5 53 -19q32 -17 54 -40q26 -27 41 -62q16 -36 16 -84q0 -101 -60 -167q-61 -67 -178 -67q-87 0 -148 41q-60 40 -89 97zM356 0l713 1366h72l-715 -1366h-70z M860 231v56l320 532h77v-534h103v-54h-103v-231h-59v231h-338zM920 285h278v465z" />
<glyph unicode="&#xbf;" horiz-adv-x="663" d="M76 -107q0 78 25 134t63 103q37 46 82 85q42 36 82 78q35 36 62 84q26 46 26 102q0 27 -16 62q-14 31 -42 53l48 45q41 -38 57 -77t16 -83q0 -69 -24 -118q-23 -48 -63 -91q-42 -45 -81 -79q-47 -40 -81 -80q-39 -45 -62 -96q-25 -55 -25 -122q0 -44 17 -87 q15 -39 48 -75q30 -33 79 -55q44 -20 106 -20q101 0 162 36q65 38 115 101l43 -47q-52 -71 -134 -112q-80 -40 -186 -40q-69 0 -130 25q-55 23 -100 66q-42 41 -65 95q-22 53 -22 113zM334 940q0 29 19 48q20 20 48 20q29 0 49 -20q19 -19 19 -48q0 -27 -19 -46 q-20 -20 -49 -20q-28 0 -48 20q-19 19 -19 46z" />
<glyph unicode="&#xc0;" horiz-adv-x="970" d="M35 0l411 1366h78l414 -1366h-72l-108 367h-543l-109 -367h-71zM231 428h508l-254 852zM238 1776h88l243 -295h-55z" />
<glyph unicode="&#xc1;" horiz-adv-x="970" d="M35 0l411 1366h78l414 -1366h-72l-108 367h-543l-109 -367h-71zM231 428h508l-254 852zM403 1481l244 295h88l-276 -295h-56z" />
<glyph unicode="&#xc2;" horiz-adv-x="970" d="M35 0l411 1366h78l414 -1366h-72l-108 367h-543l-109 -367h-71zM231 428h508l-254 852zM279 1481l170 295h73l176 -295h-51l-162 241l-153 -241h-53z" />
<glyph unicode="&#xc3;" horiz-adv-x="970" d="M35 0l411 1366h78l414 -1366h-72l-108 367h-543l-109 -367h-71zM229 1489q0 50 10 105q9 51 28 87q19 37 48 60q28 22 70 22q51 0 77 -36q27 -38 44 -79q19 -46 36 -80q18 -36 54 -36q44 0 71 51t27 168h49q0 -55 -9 -104t-27 -87t-49 -61q-29 -22 -68 -22q-52 0 -77 35 q-26 37 -44 80q-19 46 -36 80q-18 36 -54 36q-43 0 -72 -51q-28 -50 -28 -168h-50zM231 428h508l-254 852z" />
<glyph unicode="&#xc4;" horiz-adv-x="970" d="M35 0l411 1366h78l414 -1366h-72l-108 367h-543l-109 -367h-71zM231 428h508l-254 852zM264 1567q0 22 18 40q17 17 40 17q22 0 39 -17q18 -18 18 -40t-18 -40t-39 -18q-22 0 -40 18t-18 40zM596 1567q0 23 17 40t40 17t40 -17q18 -18 18 -40t-18 -40t-40 -18t-40 18 q-17 17 -17 40z" />
<glyph unicode="&#xc5;" horiz-adv-x="970" d="M35 0l411 1366h78l414 -1366h-72l-108 367h-543l-109 -367h-71zM231 428h508l-254 852zM313 1593q0 37 15 69t38 55q24 23 55 37q30 13 68 13q73 0 122 -51q51 -53 51 -123t-51 -124q-49 -52 -122 -52q-37 0 -68 15q-34 16 -55 37q-22 22 -38 56q-15 31 -15 68zM362 1593 q0 -53 37 -90t90 -37q54 0 90 37q35 36 35 90t-35 89q-36 36 -90 36q-53 0 -90 -36t-37 -89z" />
<glyph unicode="&#xc6;" horiz-adv-x="1474" d="M45 0l651 1366h658v-61h-568v-572h553v-61h-553v-611h568v-61h-633v367h-432l-172 -367h-72zM315 428h406v852z" />
<glyph unicode="&#xc7;" horiz-adv-x="1048" d="M121 682q0 150 35 282q34 128 98 224q62 94 154 147q93 54 202 54q124 0 209 -60q88 -62 146 -153l-58 -35q-51 88 -124 136q-76 50 -173 50q-94 0 -171 -48q-76 -48 -132 -134q-54 -84 -85 -205q-29 -115 -29 -258q0 -142 29 -257q30 -120 85 -204q55 -85 132 -135 q76 -49 171 -49q105 0 180 57q73 55 121 150l58 -33q-59 -104 -142 -167q-82 -63 -198 -67l-33 -90q18 15 32 18q20 5 36 5q50 0 85 -35q33 -33 33 -94q0 -69 -52 -112q-53 -44 -130 -44q-51 0 -96 17q-42 16 -72 41l29 53q37 -32 67 -43q33 -12 72 -12q50 0 86 26 q37 27 37 74q0 38 -20 61t-58 23q-47 0 -76 -35l-45 27l43 120q-102 10 -185 68q-81 56 -141 151t-89 217q-31 129 -31 269z" />
<glyph unicode="&#xc8;" horiz-adv-x="909" d="M164 0v1366h633v-61h-568v-572h553v-61h-553v-611h568v-61h-633zM231 1776h88l244 -295h-55z" />
<glyph unicode="&#xc9;" horiz-adv-x="909" d="M164 0v1366h633v-61h-568v-572h553v-61h-553v-611h568v-61h-633zM397 1481l244 295h88l-276 -295h-56z" />
<glyph unicode="&#xca;" horiz-adv-x="909" d="M164 0v1366h633v-61h-568v-572h553v-61h-553v-611h568v-61h-633zM272 1481l170 295h74l176 -295h-51l-162 241l-153 -241h-54z" />
<glyph unicode="&#xcb;" horiz-adv-x="909" d="M164 0v1366h633v-61h-568v-572h553v-61h-553v-611h568v-61h-633zM256 1567q0 23 17 40t40 17t40 -17q18 -18 18 -40t-18 -40t-40 -18t-40 18q-17 17 -17 40zM588 1567q0 23 17 40t40 17t40 -17t17 -40t-17 -40q-18 -18 -40 -18t-40 18q-17 17 -17 40z" />
<glyph unicode="&#xcc;" horiz-adv-x="393" d="M-51 1776h88l244 -295h-56zM164 0v1366h65v-1366h-65z" />
<glyph unicode="&#xcd;" horiz-adv-x="393" d="M115 1481l243 295h88l-276 -295h-55zM164 0v1366h65v-1366h-65z" />
<glyph unicode="&#xce;" horiz-adv-x="393" d="M-8 1481l170 295h74l176 -295h-52l-161 241l-154 -241h-53zM164 0v1366h65v-1366h-65z" />
<glyph unicode="&#xcf;" horiz-adv-x="393" d="M-23 1567q0 22 18 40q17 17 40 17t40 -17t17 -40t-17 -40q-18 -18 -40 -18t-40 18t-18 40zM164 0v1366h65v-1366h-65zM309 1567q0 22 18 40q17 17 40 17t40 -17t17 -40t-17 -40q-18 -18 -40 -18t-40 18t-18 40z" />
<glyph unicode="&#xd0;" horiz-adv-x="1144" d="M39 651v62h174v653h299q124 0 221 -53q95 -52 161 -146q63 -90 97 -217q33 -125 33 -268q0 -144 -33 -269q-33 -126 -97 -216q-65 -93 -161 -145q-95 -52 -221 -52h-299v651h-174zM279 61h233q110 0 194 49q83 48 137 132q56 87 82 197q27 114 27 243q0 130 -27 242 q-26 108 -82 197q-53 83 -137 134q-83 50 -194 50h-233v-592h286v-62h-286v-590z" />
<glyph unicode="&#xd1;" horiz-adv-x="1112" d="M164 0v1366h65l654 -1206v1206h65v-1366h-65l-654 1219v-1219h-65zM293 1489q0 55 9 105q9 48 29 87q19 37 48 60q28 22 70 22q51 0 76 -36q27 -38 44 -79q19 -46 36 -80q18 -36 54 -36q44 0 71 51q28 53 28 168h49q0 -55 -9 -104q-8 -46 -28 -87q-19 -39 -48 -61 t-69 -22q-51 0 -76 35q-29 40 -45 80q-24 58 -35 80q-18 36 -55 36q-42 0 -71 -51q-29 -52 -29 -168h-49z" />
<glyph unicode="&#xd2;" horiz-adv-x="1187" d="M121 682q0 146 30 273q31 130 90 225t148 152t205 57q117 0 205 -57q89 -57 148 -152t90 -225q30 -127 30 -273t-30 -273q-31 -130 -90 -225t-148 -152q-88 -57 -205 -57q-116 0 -205 57t-148 152t-90 225q-30 127 -30 273zM193 682q0 -137 26 -251q26 -116 77 -205 q49 -86 125 -138q75 -51 173 -51t173 51q76 52 125 138q51 89 77 205q26 114 26 251q0 139 -26 252q-26 115 -77 205q-49 88 -125 138t-173 50t-173 -50t-125 -138q-51 -90 -77 -205q-26 -113 -26 -252zM346 1776h88l244 -295h-55z" />
<glyph unicode="&#xd3;" horiz-adv-x="1187" d="M121 682q0 146 30 273q31 130 90 225t148 152t205 57q117 0 205 -57q89 -57 148 -152t90 -225q30 -127 30 -273t-30 -273q-31 -130 -90 -225t-148 -152q-88 -57 -205 -57q-116 0 -205 57t-148 152t-90 225q-30 127 -30 273zM193 682q0 -137 26 -251q26 -116 77 -205 q49 -86 125 -138q75 -51 173 -51t173 51q76 52 125 138q51 89 77 205q26 114 26 251q0 139 -26 252q-26 115 -77 205q-49 88 -125 138t-173 50t-173 -50t-125 -138q-51 -90 -77 -205q-26 -113 -26 -252zM512 1481l244 295h88l-277 -295h-55z" />
<glyph unicode="&#xd4;" horiz-adv-x="1187" d="M121 682q0 146 30 273q31 130 90 225t148 152t205 57q117 0 205 -57q89 -57 148 -152t90 -225q30 -127 30 -273t-30 -273q-31 -130 -90 -225t-148 -152q-88 -57 -205 -57q-116 0 -205 57t-148 152t-90 225q-30 127 -30 273zM193 682q0 -137 26 -251q26 -116 77 -205 q49 -86 125 -138q75 -51 173 -51t173 51q76 52 125 138q51 89 77 205q26 114 26 251q0 139 -26 252q-26 115 -77 205q-49 88 -125 138t-173 50t-173 -50t-125 -138q-51 -90 -77 -205q-26 -113 -26 -252zM387 1481l170 295h74l176 -295h-51l-162 241l-154 -241h-53z" />
<glyph unicode="&#xd5;" horiz-adv-x="1187" d="M121 682q0 146 30 273q31 130 90 225t148 152t205 57q117 0 205 -57q89 -57 148 -152t90 -225q30 -127 30 -273t-30 -273q-31 -130 -90 -225t-148 -152q-88 -57 -205 -57q-116 0 -205 57t-148 152t-90 225q-30 127 -30 273zM193 682q0 -137 26 -251q26 -116 77 -205 q49 -86 125 -138q75 -51 173 -51t173 51q76 52 125 138q51 89 77 205q26 114 26 251q0 139 -26 252q-26 115 -77 205q-49 88 -125 138t-173 50t-173 -50t-125 -138q-51 -90 -77 -205q-26 -113 -26 -252zM338 1489q0 55 9 105q9 48 29 87q20 37 48 60q28 22 70 22 q50 0 76 -36q27 -38 44 -79q19 -46 36 -80q18 -36 55 -36q43 0 70 51q28 53 28 168h49q0 -55 -9 -104q-8 -46 -28 -87q-19 -39 -48 -61t-69 -22q-51 0 -76 35q-26 37 -44 80q-19 46 -36 80q-18 36 -55 36q-43 0 -71 -51q-29 -52 -29 -168h-49z" />
<glyph unicode="&#xd6;" horiz-adv-x="1187" d="M121 682q0 146 30 273q31 130 90 225t148 152t205 57q117 0 205 -57q89 -57 148 -152t90 -225q30 -127 30 -273t-30 -273q-31 -130 -90 -225t-148 -152q-88 -57 -205 -57q-116 0 -205 57t-148 152t-90 225q-30 127 -30 273zM193 682q0 -137 26 -251q26 -116 77 -205 q49 -86 125 -138q75 -51 173 -51t173 51q76 52 125 138q51 89 77 205q26 114 26 251q0 139 -26 252q-26 115 -77 205q-49 88 -125 138t-173 50t-173 -50t-125 -138q-51 -90 -77 -205q-26 -113 -26 -252zM369 1567q0 23 17 40t40 17t40 -17t17 -40t-17 -40q-18 -18 -40 -18 t-40 18q-17 17 -17 40zM700 1567q0 22 18 40q17 17 40 17t40 -17t17 -40t-17 -40q-18 -18 -40 -18t-40 18t-18 40z" />
<glyph unicode="&#xd7;" horiz-adv-x="888" d="M127 412l274 272l-274 274l45 43l272 -274l275 274l43 -43l-275 -274l275 -272l-43 -45l-275 274l-272 -274z" />
<glyph unicode="&#xd8;" horiz-adv-x="1187" d="M121 682q0 146 30 273q31 130 90 225t148 152t205 57q73 0 139 -25q64 -24 117 -70l35 72h71l-57 -121q84 -99 126 -244q42 -146 42 -319q0 -146 -30 -273q-31 -130 -90 -225t-148 -152q-88 -57 -205 -57q-151 0 -258 95l-33 -70h-70l56 117q-88 102 -127 244 q-41 149 -41 321zM193 682q0 -153 31 -278q31 -127 98 -218l499 1045q-96 96 -227 96q-97 0 -173 -50t-125 -138q-51 -90 -77 -205q-26 -113 -26 -252zM367 133q92 -96 227 -96q98 0 173 51q76 52 125 138q51 89 77 205q26 114 26 251q0 155 -32 279t-97 217z" />
<glyph unicode="&#xd9;" horiz-adv-x="1093" d="M164 418v948h65v-948q0 -192 83 -287q82 -94 235 -94q152 0 234 94q83 95 83 287v948h66v-948q0 -218 -99 -330q-99 -113 -284 -113q-186 0 -285 113q-98 111 -98 330zM299 1776h88l244 -295h-56z" />
<glyph unicode="&#xda;" horiz-adv-x="1093" d="M164 418v948h65v-948q0 -192 83 -287q82 -94 235 -94q152 0 234 94q83 95 83 287v948h66v-948q0 -218 -99 -330q-99 -113 -284 -113q-186 0 -285 113q-98 111 -98 330zM465 1481l244 295h88l-277 -295h-55z" />
<glyph unicode="&#xdb;" horiz-adv-x="1093" d="M164 418v948h65v-948q0 -192 83 -287q82 -94 235 -94q152 0 234 94q83 95 83 287v948h66v-948q0 -218 -99 -330q-99 -113 -284 -113q-186 0 -285 113q-98 111 -98 330zM340 1481l170 295h74l176 -295h-51l-162 241l-154 -241h-53z" />
<glyph unicode="&#xdc;" horiz-adv-x="1093" d="M164 418v948h65v-948q0 -192 83 -287q82 -94 235 -94q152 0 234 94q83 95 83 287v948h66v-948q0 -218 -99 -330q-99 -113 -284 -113q-186 0 -285 113q-98 111 -98 330zM324 1567q0 23 17 40t40 17t40 -17t17 -40t-17 -40q-18 -18 -40 -18t-40 18q-17 17 -17 40zM655 1567 q0 22 18 40q17 17 40 17t40 -17t17 -40t-17 -40q-18 -18 -40 -18t-40 18t-18 40z" />
<glyph unicode="&#xdd;" horiz-adv-x="954" d="M25 1366h77l375 -700l377 700h78l-422 -774v-592h-66v592zM395 1481l244 295h88l-276 -295h-56z" />
<glyph unicode="&#xde;" horiz-adv-x="917" d="M164 0v1366h65v-264h275q83 0 147 -32q63 -32 106 -85q42 -52 63 -124q22 -74 22 -148q0 -75 -22 -149q-21 -71 -64 -123q-44 -53 -107 -83t-145 -30h-275v-328h-65zM229 389h273q129 0 198 91q70 93 70 233t-70 234q-69 93 -198 93h-273v-651z" />
<glyph unicode="&#xdf;" horiz-adv-x="976" d="M168 0v1090q0 65 20 118q22 57 58 95q37 39 89 61q51 22 114 22q58 0 105 -16q48 -16 84 -45q33 -26 56 -70q21 -41 21 -90q0 -53 -21 -90q-20 -36 -50 -66q-35 -35 -65 -55q-36 -24 -66 -51q-28 -25 -50 -58q-21 -32 -21 -77q0 -69 37 -109q39 -43 92 -71 q65 -35 119 -57q68 -27 119 -62q54 -37 92 -91q37 -53 37 -140q0 -52 -18 -99q-17 -45 -55 -84q-35 -37 -90 -58q-57 -22 -126 -22q-113 0 -177 40q-66 42 -116 100l47 47q35 -47 95 -89t151 -42q105 0 166 60q62 60 62 147q0 72 -37 116q-39 47 -92 77q-50 29 -119 58 q-62 27 -119 62q-53 33 -92 86q-37 50 -37 133q0 52 20 88t52 68q31 31 65 56q46 34 66 52q29 26 51 59q20 30 20 72q0 40 -17 68q-19 32 -46 52q-30 22 -67 34t-76 12q-91 0 -155 -61q-65 -62 -65 -180v-1090h-61z" />
<glyph unicode="&#xe0;" horiz-adv-x="876" d="M106 305q0 75 23 136q23 63 62 104q37 40 94 66q53 24 114 24q75 0 143 -31q69 -31 120 -106v215q0 119 -58 183q-56 62 -162 62q-76 0 -134 -29q-59 -30 -120 -104l-41 45q68 75 135 109q70 35 160 35q136 0 208 -74q73 -75 73 -225v-715h-61v115q-52 -75 -120 -108 q-67 -32 -143 -32q-61 0 -114 24q-55 25 -94 67t-62 103t-23 136zM174 305q0 -55 15 -105t45 -87t74 -60q43 -22 100 -22q76 0 143 36q68 36 111 115v246q-44 80 -111 116t-143 36q-56 0 -100 -23q-46 -24 -74 -59q-30 -38 -45 -87t-15 -106zM195 1434h88l243 -295h-55z" />
<glyph unicode="&#xe1;" horiz-adv-x="876" d="M106 305q0 75 23 136q23 63 62 104q37 40 94 66q53 24 114 24q75 0 143 -31q69 -31 120 -106v215q0 119 -58 183q-56 62 -162 62q-76 0 -134 -29q-59 -30 -120 -104l-41 45q68 75 135 109q70 35 160 35q136 0 208 -74q73 -75 73 -225v-715h-61v115q-52 -75 -120 -108 q-67 -32 -143 -32q-61 0 -114 24q-55 25 -94 67t-62 103t-23 136zM174 305q0 -55 15 -105t45 -87t74 -60q43 -22 100 -22q76 0 143 36q68 36 111 115v246q-44 80 -111 116t-143 36q-56 0 -100 -23q-46 -24 -74 -59q-30 -38 -45 -87t-15 -106zM360 1139l244 295h88l-276 -295 h-56z" />
<glyph unicode="&#xe2;" horiz-adv-x="876" d="M106 305q0 75 23 136q23 63 62 104q37 40 94 66q53 24 114 24q75 0 143 -31q69 -31 120 -106v215q0 119 -58 183q-56 62 -162 62q-76 0 -134 -29q-59 -30 -120 -104l-41 45q68 75 135 109q70 35 160 35q136 0 208 -74q73 -75 73 -225v-715h-61v115q-52 -75 -120 -108 q-67 -32 -143 -32q-61 0 -114 24q-55 25 -94 67t-62 103t-23 136zM174 305q0 -55 15 -105t45 -87t74 -60q43 -22 100 -22q76 0 143 36q68 36 111 115v246q-44 80 -111 116t-143 36q-56 0 -100 -23q-46 -24 -74 -59q-30 -38 -45 -87t-15 -106zM238 1139l170 295h73l176 -295 h-51l-162 241l-153 -241h-53z" />
<glyph unicode="&#xe3;" horiz-adv-x="876" d="M106 305q0 75 23 136q23 63 62 104q37 40 94 66q53 24 114 24q75 0 143 -31q69 -31 120 -106v215q0 119 -58 183q-56 62 -162 62q-76 0 -134 -29q-59 -30 -120 -104l-41 45q68 75 135 109q70 35 160 35q136 0 208 -74q73 -75 73 -225v-715h-61v115q-52 -75 -120 -108 q-67 -32 -143 -32q-61 0 -114 24q-55 25 -94 67t-62 103t-23 136zM174 305q0 -55 15 -105t45 -87t74 -60q43 -22 100 -22q76 0 143 36q68 36 111 115v246q-44 80 -111 116t-143 36q-56 0 -100 -23q-46 -24 -74 -59q-30 -38 -45 -87t-15 -106zM188 1147q0 50 10 105 q9 51 28 87q20 37 48 60q28 22 70 22q52 0 77 -36q27 -38 44 -79q19 -46 36 -80q18 -36 54 -36q44 0 71 51t27 168h49q0 -55 -9 -104t-27 -87t-49 -61q-29 -22 -68 -22q-52 0 -77 35q-26 37 -44 80q-19 46 -36 80q-18 36 -54 36q-44 0 -72 -51q-28 -50 -28 -168h-50z" />
<glyph unicode="&#xe4;" horiz-adv-x="876" d="M106 305q0 75 23 136q23 63 62 104q37 40 94 66q53 24 114 24q75 0 143 -31q69 -31 120 -106v215q0 119 -58 183q-56 62 -162 62q-76 0 -134 -29q-59 -30 -120 -104l-41 45q68 75 135 109q70 35 160 35q136 0 208 -74q73 -75 73 -225v-715h-61v115q-52 -75 -120 -108 q-67 -32 -143 -32q-61 0 -114 24q-55 25 -94 67t-62 103t-23 136zM174 305q0 -55 15 -105t45 -87t74 -60q43 -22 100 -22q76 0 143 36q68 36 111 115v246q-44 80 -111 116t-143 36q-56 0 -100 -23q-46 -24 -74 -59q-30 -38 -45 -87t-15 -106zM217 1225q0 23 17 40t40 17 t40 -17q18 -18 18 -40t-18 -40t-40 -18t-40 18q-17 17 -17 40zM549 1225q0 23 17 40t40 17t40 -17q18 -18 18 -40t-18 -40t-40 -18t-40 18q-17 17 -17 40z" />
<glyph unicode="&#xe5;" horiz-adv-x="876" d="M106 305q0 75 23 136q23 63 62 104q37 40 94 66q53 24 114 24q75 0 143 -31q69 -31 120 -106v215q0 119 -58 183q-56 62 -162 62q-76 0 -134 -29q-59 -30 -120 -104l-41 45q68 75 135 109q70 35 160 35q136 0 208 -74q73 -75 73 -225v-715h-61v115q-52 -75 -120 -108 q-67 -32 -143 -32q-61 0 -114 24q-55 25 -94 67t-62 103t-23 136zM174 305q0 -55 15 -105t45 -87t74 -60q43 -22 100 -22q76 0 143 36q68 36 111 115v246q-44 80 -111 116t-143 36q-56 0 -100 -23q-46 -24 -74 -59q-30 -38 -45 -87t-15 -106zM268 1309q0 37 15 68 q16 34 38 56t55 36t68 14q72 0 122 -51q50 -52 50 -123t-50 -124q-49 -52 -122 -52q-39 0 -68 14q-32 15 -55 38t-38 55t-15 69zM317 1309q0 -53 37 -90t90 -37q54 0 90 37q35 36 35 90t-35 89q-36 36 -90 36q-52 0 -90 -36q-37 -36 -37 -89z" />
<glyph unicode="&#xe6;" horiz-adv-x="1482" d="M106 305q0 76 24 136t65 104q38 41 98 66q57 24 123 24q77 0 151 -31q71 -29 127 -104v213q0 121 -59 183t-174 62q-80 0 -144 -29q-65 -30 -129 -104l-41 45q67 75 143 109q78 35 175 35q48 0 98 -13t86 -38q40 -28 65 -70t31 -107q35 92 109 160t176 68q93 0 159 -42 t108 -114t63 -166q20 -90 20 -196v-21h-624q2 -98 22 -177q21 -79 60 -140q38 -59 95 -93q56 -34 128 -34q143 0 237 145l48 -35q-51 -74 -121 -121q-67 -45 -166 -45q-125 0 -205 72q-81 73 -121 186q-35 -115 -112 -186q-78 -72 -195 -72q-141 0 -231 90q-89 89 -89 240z M174 305q0 -121 67 -199q65 -75 183 -75q65 0 114 25q50 26 85 73t53 111q18 63 18 141v45q-46 82 -117 118t-153 36q-117 0 -183 -76q-67 -78 -67 -199zM756 530h557q0 72 -15 148q-15 77 -47 138q-32 62 -86 103q-51 39 -131 39q-75 0 -125 -40q-49 -39 -85 -105 q-33 -60 -50 -139q-16 -76 -18 -144z" />
<glyph unicode="&#xe7;" horiz-adv-x="806" d="M111 496q0 106 24 200q23 91 72 165q47 71 117 112t159 41q91 0 149 -35q55 -33 105 -94l-43 -39q-46 61 -98 87q-50 25 -113 25q-79 0 -135 -37q-57 -37 -95 -103t-56 -147q-19 -87 -19 -175q0 -85 19 -174q18 -83 56 -149q37 -63 95 -103q57 -39 135 -39q63 0 113 25 q51 26 98 89l43 -41q-45 -58 -97 -91q-49 -31 -128 -36l-35 -94q18 15 32 18q20 5 36 5q50 0 85 -35q34 -34 34 -94q0 -68 -53 -112t-130 -44q-54 0 -96 16t-72 41l29 54q36 -31 68 -43q36 -13 71 -13q49 0 86 27t37 74q0 39 -19 61q-20 23 -59 23q-46 0 -75 -35l-45 27 l45 124q-81 7 -146 52q-63 43 -106 112t-66 161q-22 89 -22 194z" />
<glyph unicode="&#xe8;" horiz-adv-x="940" d="M111 496q0 106 24 201q24 93 72 165q48 71 115 111q68 41 153 41q94 0 163 -42q70 -42 113 -114q43 -71 64 -166q21 -94 21 -196v-21h-658q1 -92 25 -177q22 -79 63 -140q39 -57 101 -93q59 -34 135 -34q149 0 254 145l47 -35q-56 -76 -129 -121q-72 -45 -172 -45 q-96 0 -167 40q-74 42 -123 110q-50 70 -76 165q-25 93 -25 206zM178 530h592q0 74 -16 148q-16 73 -53 138q-36 63 -92 103q-55 39 -136 39q-79 0 -132 -40q-53 -39 -90 -105q-35 -60 -53 -139q-19 -79 -20 -144zM225 1434h88l244 -295h-55z" />
<glyph unicode="&#xe9;" horiz-adv-x="940" d="M111 496q0 106 24 201q24 93 72 165q48 71 115 111q68 41 153 41q94 0 163 -42q70 -42 113 -114q43 -71 64 -166q21 -94 21 -196v-21h-658q1 -92 25 -177q22 -79 63 -140q39 -57 101 -93q59 -34 135 -34q149 0 254 145l47 -35q-56 -76 -129 -121q-72 -45 -172 -45 q-96 0 -167 40q-74 42 -123 110q-50 70 -76 165q-25 93 -25 206zM178 530h592q0 74 -16 148q-16 73 -53 138q-36 63 -92 103q-55 39 -136 39q-79 0 -132 -40q-53 -39 -90 -105q-35 -60 -53 -139q-19 -79 -20 -144zM391 1139l244 295h88l-277 -295h-55z" />
<glyph unicode="&#xea;" horiz-adv-x="940" d="M111 496q0 106 24 201q24 93 72 165q48 71 115 111q68 41 153 41q94 0 163 -42q70 -42 113 -114q43 -71 64 -166q21 -94 21 -196v-21h-658q1 -92 25 -177q22 -79 63 -140q39 -57 101 -93q59 -34 135 -34q149 0 254 145l47 -35q-56 -76 -129 -121q-72 -45 -172 -45 q-96 0 -167 40q-74 42 -123 110q-50 70 -76 165q-25 93 -25 206zM178 530h592q0 74 -16 148q-16 73 -53 138q-36 63 -92 103q-55 39 -136 39q-79 0 -132 -40q-53 -39 -90 -105q-35 -60 -53 -139q-19 -79 -20 -144zM268 1139l170 295h74l176 -295h-51l-162 241l-153 -241h-54 z" />
<glyph unicode="&#xeb;" horiz-adv-x="940" d="M111 496q0 106 24 201q24 93 72 165q48 71 115 111q68 41 153 41q94 0 163 -42q70 -42 113 -114q43 -71 64 -166q21 -94 21 -196v-21h-658q1 -92 25 -177q22 -79 63 -140q39 -57 101 -93q59 -34 135 -34q149 0 254 145l47 -35q-56 -76 -129 -121q-72 -45 -172 -45 q-96 0 -167 40q-74 42 -123 110q-50 70 -76 165q-25 93 -25 206zM178 530h592q0 74 -16 148q-16 73 -53 138q-36 63 -92 103q-55 39 -136 39q-79 0 -132 -40q-53 -39 -90 -105q-35 -60 -53 -139q-19 -79 -20 -144zM252 1225q0 23 17 40t40 17t40 -17q18 -18 18 -40t-18 -40 t-40 -18t-40 18q-17 17 -17 40zM584 1225q0 23 17 40t40 17t40 -17t17 -40t-17 -40q-18 -18 -40 -18t-40 18q-17 17 -17 40z" />
<glyph unicode="&#xec;" horiz-adv-x="370" d="M-61 1434h88l243 -295h-55zM156 0v989h61v-989h-61z" />
<glyph unicode="&#xed;" horiz-adv-x="370" d="M102 1139l244 295h88l-276 -295h-56zM156 0v989h61v-989h-61z" />
<glyph unicode="&#xee;" horiz-adv-x="370" d="M-23 1139l170 295h74l176 -295h-51l-162 241l-153 -241h-54zM156 0v989h61v-989h-61z" />
<glyph unicode="&#xef;" horiz-adv-x="370" d="M-37 1225q0 22 18 40q17 17 39 17q23 0 40 -17q18 -18 18 -40t-18 -40t-40 -18q-21 0 -39 18t-18 40zM156 0v989h61v-989h-61zM295 1225q0 23 17 40t40 17t40 -17q18 -18 18 -40t-18 -40t-40 -18t-40 18q-17 17 -17 40z" />
<glyph unicode="&#xf0;" d="M111 496q0 106 22 198q23 94 69 165q48 72 113 113q67 42 158 42q69 0 128 -32q58 -31 108 -112q-84 170 -209 316l-252 -113l-25 53l236 105q-10 11 -63 64q-37 37 -66 61l49 43q11 -11 33.5 -34.5t34.5 -35.5q29 -29 67 -74l195 86l22 -51l-180 -80q66 -83 113 -158 q49 -80 90 -172q38 -87 60 -186q22 -101 22 -198q0 -103 -23 -200q-23 -96 -69 -166q-48 -72 -113 -113q-67 -42 -158 -42t-158 42q-65 41 -113 113q-46 70 -69 166q-22 92 -22 200zM178 496q0 -86 18 -170q19 -87 53 -150q35 -64 91 -105q55 -40 133 -40t133 40 q56 41 91 105q36 66 54 150q17 79 17 170t-17 169q-18 82 -54 148t-91 106q-53 39 -133 39t-133 -39q-55 -40 -91 -106q-35 -63 -53 -148q-18 -83 -18 -169z" />
<glyph unicode="&#xf1;" horiz-adv-x="890" d="M156 0v989h61v-151q46 71 122 123q77 53 163 53q116 0 176 -62q59 -60 59 -202v-750h-61v750q0 116 -49 162t-133 46q-86 0 -161 -57t-116 -131v-770h-61zM193 1147q0 55 9 105q9 51 28 87t49 60q28 22 69 22q52 0 77 -36q27 -38 44 -79q19 -46 36 -80q18 -36 54 -36 q44 0 71 51t27 168h50q0 -49 -10 -104q-9 -49 -27 -87q-19 -39 -48 -61t-69 -22q-52 0 -77 35q-26 37 -44 80q-19 46 -36 80q-18 36 -54 36q-44 0 -72 -51q-28 -50 -28 -168h-49z" />
<glyph unicode="&#xf2;" d="M111 496q0 106 22 198q23 94 69 165q48 72 113 113q67 42 158 42t158 -42q65 -41 113 -113q46 -71 69 -165q23 -97 23 -198q0 -103 -23 -200q-23 -96 -69 -166q-48 -72 -113 -113q-67 -42 -158 -42t-158 42q-65 41 -113 113q-46 70 -69 166q-22 92 -22 200zM178 496 q0 -86 18 -170q19 -87 53 -150q35 -64 91 -105q55 -40 133 -40t133 40q56 41 91 105q36 66 54 150q17 79 17 170t-17 169q-18 82 -54 148t-91 106q-53 39 -133 39t-133 -39q-55 -40 -91 -106q-35 -63 -53 -148q-18 -83 -18 -169zM225 1434h88l244 -295h-55z" />
<glyph unicode="&#xf3;" d="M111 496q0 106 22 198q23 94 69 165q48 72 113 113q67 42 158 42t158 -42q65 -41 113 -113q46 -71 69 -165q23 -97 23 -198q0 -103 -23 -200q-23 -96 -69 -166q-48 -72 -113 -113q-67 -42 -158 -42t-158 42q-65 41 -113 113q-46 70 -69 166q-22 92 -22 200zM178 496 q0 -86 18 -170q19 -87 53 -150q35 -64 91 -105q55 -40 133 -40t133 40q56 41 91 105q36 66 54 150q17 79 17 170t-17 169q-18 82 -54 148t-91 106q-53 39 -133 39t-133 -39q-55 -40 -91 -106q-35 -63 -53 -148q-18 -83 -18 -169zM389 1139l244 295h88l-277 -295h-55z" />
<glyph unicode="&#xf4;" d="M111 496q0 106 22 198q23 94 69 165q48 72 113 113q67 42 158 42t158 -42q65 -41 113 -113q46 -71 69 -165q23 -97 23 -198q0 -103 -23 -200q-23 -96 -69 -166q-48 -72 -113 -113q-67 -42 -158 -42t-158 42q-65 41 -113 113q-46 70 -69 166q-22 92 -22 200zM178 496 q0 -86 18 -170q19 -87 53 -150q35 -64 91 -105q55 -40 133 -40t133 40q56 41 91 105q36 66 54 150q17 79 17 170t-17 169q-18 82 -54 148t-91 106q-53 39 -133 39t-133 -39q-55 -40 -91 -106q-35 -63 -53 -148q-18 -83 -18 -169zM264 1139l170 295h74l176 -295h-51l-162 241 l-154 -241h-53z" />
<glyph unicode="&#xf5;" d="M111 496q0 106 22 198q23 94 69 165q48 72 113 113q67 42 158 42t158 -42q65 -41 113 -113q46 -71 69 -165q23 -97 23 -198q0 -103 -23 -200q-23 -96 -69 -166q-48 -72 -113 -113q-67 -42 -158 -42t-158 42q-65 41 -113 113q-46 70 -69 166q-22 92 -22 200zM178 496 q0 -86 18 -170q19 -87 53 -150q35 -64 91 -105q55 -40 133 -40t133 40q56 41 91 105q36 66 54 150q17 79 17 170t-17 169q-18 82 -54 148t-91 106q-53 39 -133 39t-133 -39q-55 -40 -91 -106q-35 -63 -53 -148q-18 -83 -18 -169zM217 1147q0 55 9 105q9 48 29 87 q19 37 48 60q28 22 70 22q51 0 77 -36q27 -38 44 -79q24 -58 35 -80q18 -36 55 -36q43 0 70 51q28 53 28 168h49q0 -55 -9 -104q-8 -46 -28 -87q-19 -39 -48 -61t-68 -22q-52 0 -77 35q-26 37 -44 80q-19 46 -36 80q-18 36 -54 36q-43 0 -72 -51q-29 -52 -29 -168h-49z" />
<glyph unicode="&#xf6;" d="M111 496q0 106 22 198q23 94 69 165q48 72 113 113q67 42 158 42t158 -42q65 -41 113 -113q46 -71 69 -165q23 -97 23 -198q0 -103 -23 -200q-23 -96 -69 -166q-48 -72 -113 -113q-67 -42 -158 -42t-158 42q-65 41 -113 113q-46 70 -69 166q-22 92 -22 200zM178 496 q0 -86 18 -170q19 -87 53 -150q35 -64 91 -105q55 -40 133 -40t133 40q56 41 91 105q36 66 54 150q17 79 17 170t-17 169q-18 82 -54 148t-91 106q-53 39 -133 39t-133 -39q-55 -40 -91 -106q-35 -63 -53 -148q-18 -83 -18 -169zM250 1225q0 23 17 40t40 17t40 -17 q18 -18 18 -40t-18 -40t-40 -18t-40 18q-17 17 -17 40zM582 1225q0 23 17 40t40 17t40 -17t17 -40t-17 -40q-18 -18 -40 -18t-40 18q-17 17 -17 40z" />
<glyph unicode="&#xf7;" horiz-adv-x="907" d="M59 659v62h789v-62h-789zM389 334q0 28 20 48q19 19 48 19t48 -19t19 -48t-19 -48q-20 -20 -48 -20t-48 20t-20 48zM389 1036q0 29 20 47q21 19 48 19t48 -19q19 -18 19 -47t-19 -49t-48 -20t-48 20q-20 22 -20 49z" />
<glyph unicode="&#xf8;" d="M111 496q0 106 22 198q23 94 69 165q48 72 113 113q67 42 158 42q65 0 120 -23t95 -63l37 61h63l-61 -106q55 -76 81 -172q28 -104 28 -215q0 -103 -23 -200q-23 -96 -69 -166q-48 -72 -113 -113q-67 -42 -158 -42q-67 0 -125 25q-52 23 -98 70l-41 -70h-64l68 115 q-52 74 -77 170q-25 97 -25 211zM178 496q0 -88 18 -171q19 -85 52 -149l409 696q-37 43 -80 64q-45 22 -104 22q-80 0 -133 -39q-55 -40 -91 -106q-35 -63 -53 -148q-18 -83 -18 -169zM283 125q34 -43 82 -69q46 -25 108 -25q78 0 133 40q56 41 91 105q36 66 54 150 q17 79 17 170q0 90 -18 176q-17 82 -58 151z" />
<glyph unicode="&#xf9;" horiz-adv-x="890" d="M156 240v749h61v-749q0 -116 48 -163q47 -46 134 -46q84 0 160 55q77 56 117 129v774h61v-989h-61v147q-49 -71 -123 -121q-76 -51 -162 -51q-116 0 -176 60q-59 59 -59 205zM197 1434h88l243 -295h-55z" />
<glyph unicode="&#xfa;" horiz-adv-x="890" d="M156 240v749h61v-749q0 -116 48 -163q47 -46 134 -46q84 0 160 55q77 56 117 129v774h61v-989h-61v147q-49 -71 -123 -121q-76 -51 -162 -51q-116 0 -176 60q-59 59 -59 205zM362 1139l244 295h88l-276 -295h-56z" />
<glyph unicode="&#xfb;" horiz-adv-x="890" d="M156 240v749h61v-749q0 -116 48 -163q47 -46 134 -46q84 0 160 55q77 56 117 129v774h61v-989h-61v147q-49 -71 -123 -121q-76 -51 -162 -51q-116 0 -176 60q-59 59 -59 205zM238 1139l170 295h73l176 -295h-51l-162 241l-153 -241h-53z" />
<glyph unicode="&#xfc;" horiz-adv-x="890" d="M156 240v749h61v-749q0 -116 48 -163q47 -46 134 -46q84 0 160 55q77 56 117 129v774h61v-989h-61v147q-49 -71 -123 -121q-76 -51 -162 -51q-116 0 -176 60q-59 59 -59 205zM229 1225q0 22 18 40q17 17 40 17t40 -17t17 -40t-17 -40q-18 -18 -40 -18t-40 18t-18 40z M561 1225q0 22 18 40q17 17 39 17q23 0 40 -17q18 -18 18 -40t-18 -40t-40 -18q-21 0 -39 18t-18 40z" />
<glyph unicode="&#xfd;" horiz-adv-x="768" d="M29 989h69l287 -911l287 911h69l-403 -1233q-52 -157 -178 -157q-49 0 -80 14l12 55q17 -8 35 -11q21 -3 33 -3q45 0 71 25q28 27 52 98l69 200zM301 1139l244 295h88l-277 -295h-55z" />
<glyph unicode="&#xfe;" horiz-adv-x="935" d="M156 -377v1743h61v-526q40 76 111 126q69 48 157 48q84 0 149 -38q61 -36 107 -108q43 -68 66 -165q22 -92 22 -207q0 -116 -22 -208q-23 -97 -66 -165q-45 -72 -107 -109q-64 -39 -149 -39q-81 0 -152 45t-116 134v-531h-61zM217 236q15 -36 44 -76q25 -34 63 -66 q34 -28 76 -46q40 -17 85 -17q71 0 124 38q50 36 86 101q33 60 50 148t17 178q0 91 -17 178t-50 147q-36 65 -86 101t-124 36q-44 0 -85 -16q-40 -16 -76 -44q-39 -30 -63 -64q-29 -40 -44 -76v-522z" />
<glyph unicode="&#xff;" horiz-adv-x="768" d="M29 989h69l287 -911l287 911h69l-403 -1233q-52 -157 -178 -157q-49 0 -80 14l12 55q17 -8 35 -11q21 -3 33 -3q45 0 71 25q28 27 52 98l69 200zM162 1225q0 23 17 40t40 17t40 -17t17 -40t-17 -40q-18 -18 -40 -18t-40 18q-17 17 -17 40zM494 1225q0 23 17 40t40 17 t40 -17t17 -40t-17 -40q-18 -18 -40 -18t-40 18q-17 17 -17 40z" />
<glyph unicode="&#x152;" horiz-adv-x="1726" d="M121 682q0 146 30 273q31 130 90 225q60 96 148 151t205 55q57 0 107 -14q55 -15 104 -45q47 -28 93 -81q46 -52 75 -122v242h633v-61h-568v-572h553v-61h-553v-611h568v-61h-633v244q-63 -146 -168 -207q-106 -62 -211 -62q-116 0 -205 57t-148 152t-90 225 q-30 127 -30 273zM193 682q0 -135 25 -251t77 -206q51 -89 126 -138q76 -50 173 -50q132 0 232 92q101 93 147 266v578q-46 173 -147 263q-100 89 -232 89q-97 0 -173 -50q-75 -49 -126 -137q-52 -88 -77 -204q-25 -115 -25 -252z" />
<glyph unicode="&#x153;" horiz-adv-x="1597" d="M111 496q0 106 22 198q23 94 69 165q48 72 113 113q67 42 158 42q75 0 132 -27t96 -69q41 -45 65 -96q26 -58 37 -103q12 53 39 105q28 55 67 95q38 39 97 68q56 27 127 27q93 0 162 -42q70 -42 113 -114q44 -74 65 -166q20 -90 20 -196v-21h-657q2 -96 24 -177 q21 -77 64 -140q39 -58 100 -93q59 -34 135 -34q149 0 254 145l47 -35q-56 -76 -129 -121q-72 -45 -172 -45q-82 0 -142 27q-62 28 -104 70q-40 40 -69 96q-25 48 -41 108q-11 -50 -37 -106q-24 -51 -65 -96q-43 -46 -96 -71q-59 -28 -132 -28q-91 0 -158 42 q-65 41 -113 113q-46 70 -69 166q-22 92 -22 200zM178 496q0 -86 18 -170q19 -87 53 -150q36 -66 91 -106q56 -41 133 -41t133 41q55 40 91 106t54 150q17 79 17 170t-17 169q-18 82 -54 148t-91 106q-53 39 -133 39t-133 -39q-55 -40 -91 -106q-35 -63 -53 -148 q-18 -83 -18 -169zM836 530h591q0 74 -16 148q-16 75 -52 138t-92 103q-55 39 -136 39q-80 0 -133 -40q-52 -39 -90 -105q-34 -60 -53 -139q-17 -74 -19 -144z" />
<glyph unicode="&#x178;" horiz-adv-x="954" d="M25 1366h77l375 -700l377 700h78l-422 -774v-592h-66v592zM262 1567q0 22 18 40q17 17 39 17q23 0 40 -17q18 -18 18 -40t-18 -40t-40 -18q-21 0 -39 18t-18 40zM594 1567q0 23 17 40t40 17t40 -17q18 -18 18 -40t-18 -40t-40 -18t-40 18q-17 17 -17 40z" />
<glyph unicode="&#x2c6;" horiz-adv-x="419" d="M0 1139l170 295h74l176 -295h-51l-162 241l-154 -241h-53z" />
<glyph unicode="&#x2dc;" horiz-adv-x="514" d="M0 1147q0 55 9 105q9 48 29 87q20 37 48 60q28 22 70 22q50 0 76 -36q27 -38 44 -79q19 -46 36 -80q18 -36 55 -36q43 0 70 51q28 53 28 168h49q0 -55 -9 -104q-8 -46 -28 -87q-19 -39 -48 -61t-69 -22q-51 0 -76 35q-26 37 -44 80q-19 46 -36 80q-18 36 -54 36 q-44 0 -72 -51q-29 -52 -29 -168h-49z" />
<glyph unicode="&#x2000;" horiz-adv-x="888" />
<glyph unicode="&#x2001;" horiz-adv-x="1776" />
<glyph unicode="&#x2002;" horiz-adv-x="888" />
<glyph unicode="&#x2003;" horiz-adv-x="1776" />
<glyph unicode="&#x2004;" horiz-adv-x="592" />
<glyph unicode="&#x2005;" horiz-adv-x="444" />
<glyph unicode="&#x2006;" horiz-adv-x="296" />
<glyph unicode="&#x2007;" horiz-adv-x="296" />
<glyph unicode="&#x2008;" horiz-adv-x="222" />
<glyph unicode="&#x2009;" horiz-adv-x="355" />
<glyph unicode="&#x200a;" horiz-adv-x="98" />
<glyph unicode="&#x2010;" horiz-adv-x="542" d="M61 465v61h420v-61h-420z" />
<glyph unicode="&#x2011;" horiz-adv-x="542" d="M61 465v61h420v-61h-420z" />
<glyph unicode="&#x2012;" horiz-adv-x="542" d="M61 465v61h420v-61h-420z" />
<glyph unicode="&#x2013;" horiz-adv-x="1079" d="M61 465v61h957v-61h-957z" />
<glyph unicode="&#x2014;" horiz-adv-x="1509" d="M61 465v61h1387v-61h-1387z" />
<glyph unicode="&#x2018;" horiz-adv-x="425" d="M127 1139q0 77 39 145t88 102l45 -36q-50 -38 -79 -89q-30 -53 -30 -100h7q5 0 6 1t4 1q29 0 47 -19q18 -20 18 -48q0 -26 -18 -46t-47 -20q-31 0 -56 28q-24 27 -24 81z" />
<glyph unicode="&#x2019;" horiz-adv-x="425" d="M119 1067q50 38 79 89t29 99q-2 -2 -6 -2h-10q-29 0 -47 20q-19 21 -19 48q0 25 19 46q18 19 47 19q32 0 56 -27t24 -81q0 -78 -39 -145q-40 -70 -88 -103z" />
<glyph unicode="&#x201c;" horiz-adv-x="677" d="M137 1139q0 77 39 145t88 102l45 -36q-50 -38 -79 -89t-29 -100h6q3 0 4 1t4 1q29 0 47 -19q19 -21 19 -48q0 -25 -19 -46q-18 -20 -47 -20q-32 0 -55 28t-23 81zM389 1139q0 77 39 145t88 102l45 -36q-50 -38 -79 -89t-29 -100h6q3 0 4 1t4 1q29 0 47 -19q18 -20 18 -48 q0 -26 -18 -46t-47 -20q-32 0 -55 28t-23 81z" />
<glyph unicode="&#x201d;" horiz-adv-x="677" d="M119 1067q50 38 79 89t29 99q-2 -2 -6 -2h-10q-29 0 -47 20q-19 21 -19 48q0 25 19 46q18 19 47 19q32 0 56 -27t24 -81q0 -78 -39 -145q-40 -70 -88 -103zM371 1067q50 38 79 89t29 99q-2 -2 -6 -2h-10q-29 0 -47 20q-19 21 -19 48q0 25 19 46q18 19 47 19q32 0 56 -27 t24 -81q0 -78 -39 -145q-40 -70 -88 -103z" />
<glyph unicode="&#x201e;" horiz-adv-x="677" d="M119 -205q50 38 79 89t29 100q-2 -2 -6 -2h-10q-29 0 -47 19q-19 21 -19 48q0 25 19 46q18 20 47 20q31 0 56 -28q24 -27 24 -81q0 -77 -39 -145q-40 -70 -88 -103zM371 -205q50 38 79 89t29 100q-2 -2 -6 -2h-10q-29 0 -47 19q-19 21 -19 48q0 25 19 46q18 20 47 20 q31 0 56 -28q24 -27 24 -81q0 -77 -39 -145q-40 -70 -88 -103z" />
<glyph unicode="&#x2022;" horiz-adv-x="733" d="M168 496q0 84 58 142t143 58q84 0 142 -58t58 -142q0 -41 -15 -77t-43 -64t-65 -43q-38 -15 -77 -15q-41 0 -78 15t-65 43t-43 64t-15 77z" />
<glyph unicode="&#x2026;" horiz-adv-x="1277" d="M145 49q0 26 20 46t48 20t48 -20t20 -46q0 -28 -20 -48q-19 -19 -48 -19t-48 19q-20 20 -20 48zM571 49q0 26 20 46t48 20t48 -20t20 -46q0 -28 -20 -48q-19 -19 -48 -19t-48 19q-20 20 -20 48zM997 49q0 26 20 46t48 20t48 -20t20 -46q0 -28 -20 -48q-19 -19 -48 -19 t-48 19q-20 20 -20 48z" />
<glyph unicode="&#x202f;" horiz-adv-x="355" />
<glyph unicode="&#x2039;" horiz-adv-x="452" d="M61 498l256 362h74l-256 -362l256 -369h-74z" />
<glyph unicode="&#x203a;" horiz-adv-x="452" d="M61 129l256 369l-256 362h74l256 -362l-256 -369h-74z" />
<glyph unicode="&#x205f;" horiz-adv-x="444" />
<glyph unicode="&#x20ac;" horiz-adv-x="1075" d="M59 506v61h99q-6 55 -6 115q0 59 6 119h-99v61h105q18 114 59 214q39 94 103 166q62 70 140 108q80 39 175 39q124 0 209 -60q86 -61 145 -153l-57 -35q-51 88 -124 136q-76 50 -173 50q-78 0 -145 -34q-69 -35 -120 -95q-52 -61 -88 -146q-35 -84 -52 -190h497v-61h-504 q-6 -60 -6 -119q0 -60 6 -115h504v-61h-497q17 -108 52 -191q36 -86 88 -148q50 -60 119 -96q65 -34 146 -34q104 0 179 57t122 150l57 -33q-62 -110 -147 -172q-87 -64 -211 -64q-95 0 -175 39q-76 37 -140 109q-63 71 -103 168q-42 102 -59 215h-105z" />
<glyph unicode="&#x2122;" horiz-adv-x="847" d="M35 1313v53h270v-53h-106v-398h-58v398h-106zM379 915v451h88l111 -324l110 324h88v-451h-57v373l-133 -373h-17l-133 373v-373h-57z" />
<glyph unicode="&#x25fc;" horiz-adv-x="993" d="M0 0v993h993v-993h-993z" />
</font>
</defs>
</svg>
