<?xml version="1.0" standalone="no"?>
<!DOCTYPE svg PUBLIC "-//W3C//DTD SVG 1.1//EN" "http://www.w3.org/Graphics/SVG/1.1/DTD/svg11.dtd" >
<svg xmlns="http://www.w3.org/2000/svg">
<metadata></metadata>
<defs>
<font id="proxima_nova_condensedRgIt" horiz-adv-x="985" >
<font-face units-per-em="2048" ascent="1618" descent="-430" />
<missing-glyph horiz-adv-x="440" />
<glyph unicode="&#xfb01;" horiz-adv-x="933" d="M59 0l191 860h-131l28 129h132l24 119q30 138 102.5 208t180.5 70q85 0 141 -34l-57 -119q-28 22 -74 22q-113 0 -145 -147l-27 -119h168l-29 -129h-166l-190 -860h-148zM543 0l219 989h145l-219 -989h-145zM784 1219q0 51 35.5 82.5t77.5 31.5q39 0 65.5 -26t26.5 -62 q0 -51 -35 -81.5t-77 -30.5q-39 0 -66 25t-27 61z" />
<glyph unicode="&#xfb02;" horiz-adv-x="933" d="M59 0l191 860h-131l28 129h132l24 119q30 138 102.5 208t180.5 70q85 0 141 -34l-57 -119q-28 22 -74 22q-113 0 -145 -147l-27 -119h168l-29 -129h-166l-190 -860h-148zM543 0l301 1366h145l-301 -1366h-145z" />
<glyph unicode="&#xfb03;" horiz-adv-x="1454" d="M59 0l191 860h-131l28 129h132l24 119q63 278 283 278q118 0 184 -69l-76 -107q-36 45 -98 45q-113 0 -145 -147l-27 -119h168l-29 -129h-166l-190 -860h-148zM578 0l190 860h-131l29 129h131l24 119q30 138 102.5 208t180.5 70q85 0 141 -34l-57 -119q-28 22 -74 22 q-113 0 -145 -147l-27 -119h168l-29 -129h-166l-190 -860h-147zM1063 0l219 989h145l-219 -989h-145zM1305 1219q0 51 35 82.5t77 31.5q39 0 65.5 -26t26.5 -62q0 -51 -35 -81.5t-77 -30.5q-39 0 -65.5 25t-26.5 61z" />
<glyph unicode="&#xfb04;" horiz-adv-x="1454" d="M59 0l191 860h-131l28 129h132l24 119q63 278 283 278q118 0 184 -69l-76 -107q-36 45 -98 45q-113 0 -145 -147l-27 -119h168l-29 -129h-166l-190 -860h-148zM578 0l190 860h-131l29 129h131l24 119q30 138 102.5 208t180.5 70q85 0 141 -34l-57 -119q-28 22 -74 22 q-113 0 -145 -147l-27 -119h168l-29 -129h-166l-190 -860h-147zM1063 0l301 1366h145l-301 -1366h-145z" />
<glyph horiz-adv-x="2048" />
<glyph horiz-adv-x="2048" />
<glyph unicode="&#xd;" horiz-adv-x="2048" />
<glyph unicode=" "  horiz-adv-x="440" />
<glyph unicode="&#x09;" horiz-adv-x="440" />
<glyph unicode="&#xa0;" horiz-adv-x="440" />
<glyph unicode="!" horiz-adv-x="466" d="M33 80q0 50 34.5 84.5t84.5 34.5q42 0 71 -30t29 -73q0 -49 -35.5 -82.5t-85.5 -33.5q-41 0 -69.5 29.5t-28.5 70.5zM145 379l187 987h184l-250 -987h-121z" />
<glyph unicode="&#x22;" horiz-adv-x="696" d="M238 848q43 407 43 430q3 47 32.5 77.5t73.5 30.5q34 0 57 -23t23 -58q0 -8 -10 -48l-146 -409h-73zM535 848q41 407 43 430q3 48 32 78t74 30q33 0 56.5 -23t23.5 -58q0 -24 -12 -48l-146 -409h-71z" />
<glyph unicode="#" horiz-adv-x="1038" d="M2 0l188 373h-180l51 104h183l207 412h-181l47 104h187l186 373h121l-186 -373h184l186 373h121l-188 -373h180l-49 -104h-182l-209 -412h186l-51 -104h-189l-186 -373h-121l191 373h-189l-186 -373h-121zM362 477h185l209 412h-185z" />
<glyph unicode="$" horiz-adv-x="960" d="M4 168l107 119q40 -61 103.5 -103t137.5 -57l115 514q-48 32 -77 52.5t-67.5 56t-60 68t-37.5 78t-16 95.5q0 164 123 281t299 117h2l41 184h121l-45 -197q172 -40 256 -153l-103 -117q-73 94 -186 125l-105 -471q56 -37 93.5 -67t77.5 -73.5t60.5 -96.5t20.5 -115 q0 -113 -51 -210t-149.5 -158.5t-225.5 -64.5l-39 -180h-120l40 191q-103 17 -187 65.5t-128 116.5zM381 1014q0 -53 32.5 -95.5t94.5 -87.5l92 410q-95 -7 -157 -73t-62 -154zM471 123q102 13 161.5 86.5t59.5 173.5q0 54 -31.5 98.5t-89.5 89.5z" />
<glyph unicode="%" horiz-adv-x="1331" d="M152 0l1017 1366h99l-1020 -1366h-96zM174 975q0 174 100.5 292.5t233.5 118.5q117 0 187.5 -74t70.5 -188q0 -174 -100.5 -292.5t-231.5 -118.5q-116 0 -188 75t-72 187zM289 985q0 -79 41 -125.5t108 -46.5q82 0 147.5 88t65.5 213q0 81 -40 126.5t-107 45.5 q-84 0 -149.5 -87.5t-65.5 -213.5zM645 238q0 174 100.5 292.5t231.5 118.5q117 0 188.5 -74t71.5 -188q0 -174 -100.5 -293t-233.5 -119q-117 0 -187.5 74.5t-70.5 188.5zM760 248q0 -81 40 -126.5t107 -45.5q84 0 149.5 87.5t65.5 213.5q0 79 -41 125.5t-108 46.5 q-82 0 -147.5 -88t-65.5 -213z" />
<glyph unicode="&#x26;" horiz-adv-x="1069" d="M29 274q0 77 20 143.5t50.5 115t79 93.5t93.5 75.5t105 64.5q-31 118 -31 219q0 163 99 282t231 119q107 0 173 -57.5t66 -171.5q0 -64 -22.5 -121.5t-48.5 -94t-85.5 -81.5t-91 -64t-107.5 -62q-13 -7 -19 -11q31 -91 75 -184q48 -117 89 -201q92 123 178 299l112 -66 q-121 -226 -227 -354q33 -62 127 -217h-172q-33 55 -61 109q-154 -134 -314 -134q-141 0 -230 78t-89 221zM188 293q0 -90 53.5 -142.5t131.5 -52.5q107 0 231 121q-74 144 -108 225q-40 96 -80 205q-52 -33 -90 -66.5t-71 -77t-50 -97t-17 -115.5zM489 977q0 -59 17 -139 q51 28 85.5 49t73 51.5t61 60.5t37.5 69.5t15 84.5q0 61 -29 90t-77 29q-68 0 -125.5 -88.5t-57.5 -206.5z" />
<glyph unicode="'" horiz-adv-x="403" d="M238 848q43 407 43 430q3 47 32.5 77.5t73.5 30.5q34 0 57 -23t23 -58q0 -8 -10 -48l-146 -409h-73z" />
<glyph unicode="(" horiz-adv-x="468" d="M45 104q0 350 127.5 679.5t362.5 619.5l83 -64q-196 -295 -308.5 -632.5t-112.5 -675.5q0 -77 13.5 -189t33.5 -202l-107 -48q-92 234 -92 512z" />
<glyph unicode=")" horiz-adv-x="468" d="M-152 -344q196 295 309 633t113 676q0 77 -13.5 189t-33.5 202l107 47q92 -234 92 -512q0 -350 -127.5 -679.5t-362.5 -619.5z" />
<glyph unicode="*" horiz-adv-x="659" d="M160 1018l233 82l-184 129l61 71l168 -147l41 233h92l-65 -239l225 104l27 -82l-230 -84l183 -127l-64 -71l-168 145l-39 -231h-92l66 239l-228 -104z" />
<glyph unicode="+" horiz-adv-x="897" d="M90 639l23 104h333l80 363h113l-80 -363h334l-25 -104h-331l-84 -377h-115l84 377h-332z" />
<glyph unicode="," horiz-adv-x="468" d="M-37 -180q58 29 105.5 76t64.5 96q-2 -2 -16 -2q-35 0 -59.5 25.5t-24.5 64.5q0 49 36 84t83 35q45 0 74.5 -31t29.5 -86q0 -93 -68 -186t-163 -142z" />
<glyph unicode="-" horiz-adv-x="548" d="M45 430l29 131h426l-29 -131h-426z" />
<glyph unicode="." horiz-adv-x="468" d="M33 80q0 49 35.5 84t85.5 35q41 0 69.5 -30t28.5 -73q0 -49 -34.5 -82.5t-84.5 -33.5q-42 0 -71 29t-29 71z" />
<glyph unicode="/" horiz-adv-x="507" d="M-121 -41l713 1448h121l-715 -1448h-119z" />
<glyph unicode="0" horiz-adv-x="1052" d="M100 430q0 104 18.5 215t52.5 217.5t85.5 201.5t113.5 166.5t141.5 113.5t164.5 42q167 0 259.5 -117.5t92.5 -336.5q0 -126 -25.5 -259.5t-75.5 -257.5t-117.5 -222.5t-159.5 -158t-193 -59.5q-167 0 -262 118.5t-95 336.5zM262 412q0 -291 207 -291q70 0 134.5 58 t111 150t81.5 203t52.5 220.5t17.5 199.5q0 289 -204 289q-71 0 -136 -57.5t-111.5 -149.5t-82 -202.5t-53 -220t-17.5 -199.5z" />
<glyph unicode="1" horiz-adv-x="645" d="M147 1028l402 338h143l-301 -1366h-162l254 1151l-260 -225z" />
<glyph unicode="2" horiz-adv-x="1005" d="M-4 0l37 164q64 57 162 143t148 130.5t124.5 112t111.5 105t86.5 89.5t73 86.5t48 76t33.5 77t9 71.5q0 87 -59.5 136.5t-157.5 49.5q-167 0 -284 -139l-86 106q72 83 171.5 130.5t211.5 47.5q162 0 269 -82.5t107 -234.5q0 -161 -150 -350q-108 -135 -376 -378 q-36 -34 -217 -196h545l-31 -145h-776z" />
<glyph unicode="3" horiz-adv-x="970" d="M-6 254l129 84q35 -103 114.5 -160t180.5 -57q84 0 147.5 46t95 117t31.5 154q0 90 -62.5 140.5t-166.5 50.5q-78 0 -96 -2l32 149q18 -2 142 -2q118 0 195 79.5t77 201.5q0 86 -62.5 136t-168.5 50q-74 0 -146.5 -36t-128.5 -103l-84 102q69 82 168 132t209 50 q171 0 276 -81t105 -228q0 -144 -97.5 -254t-230.5 -129q92 -28 145.5 -101t53.5 -171q0 -87 -32.5 -168t-89 -143t-138 -99t-174.5 -37q-149 0 -266.5 75t-157.5 204z" />
<glyph unicode="4" horiz-adv-x="948" d="M12 350l35 154l678 862h215l-192 -872h149l-31 -144h-149l-78 -350h-162l78 350h-543zM197 494h389l153 690z" />
<glyph unicode="5" horiz-adv-x="1009" d="M41 248l131 84q34 -104 105 -157.5t174 -53.5q79 0 147.5 54.5t107.5 143.5t39 187q0 100 -59 156.5t-160 56.5q-121 0 -235 -105l-109 54l154 698h698l-30 -145h-537l-102 -461q96 96 239 96q135 0 223 -89.5t88 -244.5q0 -142 -59 -266.5t-168 -202.5t-242 -78 q-299 0 -405 273z" />
<glyph unicode="6" horiz-adv-x="1009" d="M94 408q0 71 10.5 155.5t34.5 179t58 185.5t84.5 174.5t110.5 146t139.5 100t168.5 37.5q117 0 204.5 -54.5t127.5 -151.5l-114 -103q-25 77 -84 120.5t-144 43.5q-63 0 -119.5 -32t-98 -83t-77 -122.5t-59 -141t-41.5 -147.5q-7 -25 -10 -43q55 75 141.5 128.5 t179.5 53.5q140 0 229 -85t89 -234q0 -99 -34 -198.5t-92.5 -180t-147 -131t-189.5 -50.5q-180 0 -273.5 116t-93.5 317zM250 385q0 -121 56 -192.5t161 -71.5q83 0 151 65t102 154t34 174q0 91 -57 147t-156 56q-144 0 -281 -189q-10 -58 -10 -143z" />
<glyph unicode="7" horiz-adv-x="868" d="M88 0l698 1221h-573l31 145h764l-27 -113l-711 -1253h-182z" />
<glyph unicode="8" horiz-adv-x="997" d="M45 289q0 146 96.5 261t268.5 169q-79 43 -134 118t-55 167q0 110 60.5 198.5t156 136t203.5 47.5q99 0 182.5 -31.5t139 -102.5t55.5 -171q0 -151 -97.5 -253t-244.5 -136q87 -51 145 -132.5t58 -180.5q0 -175 -126.5 -289.5t-308.5 -114.5q-181 0 -290 79.5t-109 234.5 zM215 317q0 -95 64.5 -145.5t164.5 -50.5q106 0 188.5 79.5t82.5 198.5q0 89 -59.5 154t-125.5 86q-132 -21 -223.5 -108.5t-91.5 -213.5zM383 981q0 -71 54.5 -130.5t119.5 -84.5q79 14 142 48.5t105 98.5t42 148q0 79 -60.5 128.5t-154.5 49.5q-102 0 -175 -73t-73 -185z " />
<glyph unicode="9" horiz-adv-x="1009" d="M57 184l115 103q25 -77 83.5 -120.5t143.5 -43.5q78 0 144.5 47t114.5 127.5t81 166.5t56 185q3 11 5.5 24t4.5 19q-55 -75 -142 -128.5t-180 -53.5q-140 0 -228.5 85t-88.5 234q0 99 34 198.5t92.5 180t147 131t189.5 50.5q180 0 273 -116t93 -317q0 -71 -11 -155.5 t-34.5 -179.5t-58 -186t-84.5 -174t-110 -146t-139.5 -100.5t-168.5 -37.5q-117 0 -204.5 55t-127.5 152zM334 850q0 -91 57.5 -147t155.5 -56q147 0 280 189q13 76 13 143q0 121 -56 192.5t-161 71.5q-83 0 -151.5 -65t-103 -154t-34.5 -174z" />
<glyph unicode=":" horiz-adv-x="462" d="M33 80q0 49 35.5 84t85.5 35q41 0 69.5 -30t28.5 -73q0 -49 -34.5 -82.5t-84.5 -33.5q-41 0 -70.5 29.5t-29.5 70.5zM211 885q0 49 35.5 84t85.5 35q41 0 69.5 -29.5t28.5 -71.5q0 -49 -35 -84t-84 -35q-42 0 -71 29.5t-29 71.5z" />
<glyph unicode=";" horiz-adv-x="466" d="M-37 -180q58 29 105.5 76t64.5 96q-2 -2 -16 -2q-35 0 -59.5 25.5t-24.5 64.5q0 49 36 84t83 35q45 0 74.5 -31t29.5 -86q0 -93 -68 -186t-163 -142zM211 885q0 49 35.5 84t85.5 35q41 0 69.5 -29.5t28.5 -71.5q0 -49 -35 -84t-84 -35q-42 0 -71 29.5t-29 71.5z" />
<glyph unicode="&#x3c;" horiz-adv-x="897" d="M88 633l23 104l864 377l-31 -129l-719 -307l584 -303l-27 -119z" />
<glyph unicode="=" horiz-adv-x="897" d="M43 434l25 105h778l-23 -105h-780zM131 829l25 105h778l-23 -105h-780z" />
<glyph unicode="&#x3e;" horiz-adv-x="897" d="M4 256l31 131l719 303l-584 305l25 119l696 -377l-25 -104z" />
<glyph unicode="?" horiz-adv-x="794" d="M193 80q0 50 34.5 84.5t83.5 34.5q43 0 72 -30t29 -73q0 -49 -35.5 -82.5t-85.5 -33.5q-41 0 -69.5 29.5t-28.5 70.5zM217 1264q136 122 318 122q149 0 242 -76.5t93 -193.5q0 -69 -24.5 -128t-63.5 -101t-86.5 -79.5t-95 -70t-86.5 -64.5t-63.5 -71.5t-24.5 -83.5 q0 -51 25 -88l-134 -53q-34 61 -34 135q0 59 23 110t59.5 87.5t80.5 70t88.5 65.5t81 65.5t59.5 77.5t23 95q0 70 -51.5 116t-140.5 46q-124 0 -227 -92z" />
<glyph unicode="@" horiz-adv-x="1419" d="M113 471q0 162 61.5 316.5t162.5 268t238.5 182.5t282.5 69q235 0 381.5 -160.5t146.5 -415.5q0 -243 -99.5 -400t-227.5 -157q-74 0 -119.5 44.5t-50.5 111.5l-2 12q-48 -74 -119.5 -121t-155.5 -47q-110 0 -180 75.5t-70 217.5q0 140 58 268t158 207.5t215 79.5 q75 0 128 -43t76 -111l25 121h133l-119 -561q-4 -24 -4 -51q0 -46 21 -71t57 -25q28 0 62 27.5t66.5 79.5t54.5 142.5t22 200.5q0 231 -127 368.5t-334 137.5q-176 0 -332 -109.5t-247 -286t-91 -368.5q0 -242 137.5 -395.5t358.5 -153.5q171 0 332 115l35 -53 q-178 -129 -375 -129q-247 0 -403 171t-156 443zM504 479q0 -90 40 -142t115 -52q133 0 248 174l66 307q-14 58 -55.5 101.5t-104.5 43.5q-88 0 -160.5 -68.5t-110.5 -166.5t-38 -197z" />
<glyph unicode="A" horiz-adv-x="1048" d="M-94 0l712 1366h195l109 -1366h-170l-21 309h-487l-156 -309h-182zM311 455h418l-47 731z" />
<glyph unicode="B" horiz-adv-x="1058" d="M33 0l301 1366h405q140 0 227 -82.5t87 -212.5q0 -141 -82 -252t-207 -131q78 -22 123 -97t45 -163q0 -81 -26 -155.5t-75 -136.5t-130.5 -99t-182.5 -37h-485zM227 145h281q116 0 187 87t71 206q0 90 -49 139.5t-139 49.5h-244zM367 772h274q61 0 108.5 26t74.5 67.5 t41 88t14 93.5q0 80 -51 127t-132 47h-231z" />
<glyph unicode="C" horiz-adv-x="1093" d="M102 469q0 131 30 263.5t88 250t135.5 208.5t180.5 144.5t216 53.5q160 0 263.5 -87.5t147.5 -232.5l-153 -45q-35 108 -104.5 163.5t-166.5 55.5q-126 0 -235.5 -119t-170.5 -297t-61 -358q0 -165 78.5 -256.5t218.5 -91.5q148 0 279 166l125 -76q-172 -236 -414 -236 q-207 0 -332 132t-125 362z" />
<glyph unicode="D" horiz-adv-x="1157" d="M33 0l301 1366h356q85 0 162 -34t136.5 -95.5t94.5 -157.5t35 -211q0 -75 -12 -154.5t-39 -165t-66.5 -164t-98.5 -149t-131 -122.5t-168 -82.5t-206 -30.5h-364zM227 145h199q100 0 187.5 46.5t148 121.5t104 170.5t64 192.5t20.5 188q0 163 -82.5 260t-208.5 97h-194z " />
<glyph unicode="E" horiz-adv-x="946" d="M33 0l301 1366h702l-30 -145h-541l-98 -449h526l-33 -145h-526l-107 -482h541l-33 -145h-702z" />
<glyph unicode="F" horiz-adv-x="923" d="M33 0l301 1366h702l-30 -145h-541l-98 -449h526l-33 -145h-526l-137 -627h-164z" />
<glyph unicode="G" horiz-adv-x="1155" d="M102 469q0 133 29.5 265.5t87 249.5t135.5 208t182 144t220 53q157 0 257 -84t144 -218l-143 -51q-33 95 -104 151t-171 56q-127 0 -236.5 -118.5t-170 -296t-60.5 -359.5q0 -167 79 -257.5t218 -90.5q142 0 262 131l68 303h-330l31 145h483l-112 -512 q-175 -213 -412 -213q-208 0 -332.5 132.5t-124.5 361.5z" />
<glyph unicode="H" horiz-adv-x="1177" d="M33 0l301 1366h164l-131 -592h565l131 592h162l-301 -1366h-162l137 631h-565l-137 -631h-164z" />
<glyph unicode="I" horiz-adv-x="450" d="M33 0l301 1366h164l-301 -1366h-164z" />
<glyph unicode="J" horiz-adv-x="817" d="M-59 113l88 120q32 -54 84.5 -83t117.5 -29q193 0 248 235l221 1010h164l-225 -1014q-43 -193 -140.5 -285t-256.5 -92q-96 0 -176 35.5t-125 102.5z" />
<glyph unicode="K" horiz-adv-x="1044" d="M33 0l301 1366h164l-152 -688l619 688h204l-600 -647l336 -719h-182l-274 610l-158 -174l-94 -436h-164z" />
<glyph unicode="L" horiz-adv-x="847" d="M20 0l302 1366h163l-270 -1221h496l-31 -145h-660z" />
<glyph unicode="M" horiz-adv-x="1400" d="M33 0l301 1366h221l109 -1006l555 1006h229l-301 -1366h-162l246 1106l-608 -1106h-64l-119 1106l-243 -1106h-164z" />
<glyph unicode="N" horiz-adv-x="1173" d="M33 0l301 1366h164l331 -1026l230 1026h162l-301 -1366h-156l-336 1049l-231 -1049h-164z" />
<glyph unicode="O" horiz-adv-x="1230" d="M102 469q0 126 28.5 256t85.5 248.5t133.5 211.5t181.5 148.5t221 55.5q205 0 330.5 -136.5t125.5 -359.5q0 -125 -28.5 -255t-85.5 -248.5t-133.5 -211t-181 -148t-220.5 -55.5q-207 0 -332 135.5t-125 358.5zM272 469q0 -162 81.5 -255t215.5 -93q128 0 237.5 118.5 t169.5 295.5t60 358q0 163 -82 256.5t-215 93.5q-97 0 -185.5 -70.5t-149 -181.5t-96.5 -249t-36 -273z" />
<glyph unicode="P" horiz-adv-x="999" d="M33 0l301 1366h393q137 0 226 -95.5t89 -236.5q0 -70 -17 -138t-54.5 -131.5t-92 -111.5t-135.5 -77t-178 -29h-248l-120 -547h-164zM348 692h236h-4q70 0 126.5 28t92 75t54.5 105.5t19 121.5q0 89 -52.5 144t-133.5 55h-221z" />
<glyph unicode="Q" horiz-adv-x="1230" d="M102 469q0 126 28.5 256t85.5 248.5t133.5 211.5t181.5 148.5t221 55.5q205 0 330.5 -136.5t125.5 -359.5q0 -227 -91.5 -451.5t-246.5 -349.5l50 -112l-129 -48l-37 86q-97 -43 -195 -43q-207 0 -332 135.5t-125 358.5zM272 469q0 -162 81.5 -255t215.5 -93q59 0 127 33 l-112 264l129 47l94 -225q104 112 166.5 291.5t62.5 361.5q0 163 -82 256.5t-215 93.5q-97 0 -185.5 -70.5t-149 -181.5t-96.5 -249t-36 -273z" />
<glyph unicode="R" horiz-adv-x="1044" d="M33 0l301 1366h379q139 0 235 -92.5t96 -239.5q0 -182 -103 -314t-261 -157l162 -563h-176l-144 547h-207l-118 -547h-164zM348 690h234q135 0 212.5 98.5t77.5 233.5q0 92 -54 145.5t-132 53.5h-221z" />
<glyph unicode="S" horiz-adv-x="966" d="M0 168l106 119q52 -76 138 -121t184 -45q119 0 189.5 76t70.5 186q0 49 -26.5 92.5t-69 77t-94.5 66.5t-103.5 69.5t-94 78t-69 99t-26.5 125.5q0 164 123 281t299 117q116 0 216 -44t158 -122l-102 -117q-48 66 -123.5 101.5t-159.5 35.5q-102 0 -170.5 -68t-68.5 -161 q0 -45 26.5 -85t69 -73t94 -66.5t103.5 -71.5t94.5 -80.5t69 -101.5t26.5 -128q0 -116 -52 -213.5t-153.5 -158.5t-232.5 -61q-134 0 -249.5 54t-172.5 139z" />
<glyph unicode="T" horiz-adv-x="915" d="M211 1221l31 145h813l-31 -145h-326l-270 -1221h-162l271 1221h-326z" />
<glyph unicode="U" horiz-adv-x="1165" d="M121 348q0 34 10 96l203 922h164l-205 -926q-8 -56 -8 -78q0 -111 67.5 -176t184.5 -65q127 0 200 78t109 241l203 926h163l-202 -924q-53 -232 -167.5 -349.5t-312.5 -117.5q-188 0 -298.5 100t-110.5 273z" />
<glyph unicode="V" horiz-adv-x="1048" d="M207 1366h170l74 -1169l589 1169h183l-711 -1366h-195z" />
<glyph unicode="W" horiz-adv-x="1468" d="M223 1366h172l-22 -1112l481 1112h135l-10 -1112l469 1112h178l-606 -1366h-174l16 1077l-463 -1077h-172z" />
<glyph unicode="X" horiz-adv-x="1048" d="M-94 0l565 707l-242 659h181l182 -530l405 530h203l-536 -676l258 -690h-179l-200 559l-437 -559h-200z" />
<glyph unicode="Y" horiz-adv-x="1026" d="M201 1366h172l182 -631l461 631h190l-596 -788l-127 -578h-161l127 578z" />
<glyph unicode="Z" horiz-adv-x="948" d="M-29 0l31 139l805 1082h-565l30 145h770l-28 -135l-809 -1086h581l-30 -145h-785z" />
<glyph unicode="[" horiz-adv-x="434" d="M-121 -389l393 1778h324l-25 -109h-209l-344 -1561h207l-24 -108h-322z" />
<glyph unicode="\" horiz-adv-x="507" d="M190 1407h117l82 -1448h-117z" />
<glyph unicode="]" horiz-adv-x="434" d="M-162 -389l25 108h207l346 1561h-209l24 109h324l-395 -1778h-322z" />
<glyph unicode="^" horiz-adv-x="780" d="M78 682l446 684h113l143 -684h-114l-105 567l-358 -567h-125z" />
<glyph unicode="_" horiz-adv-x="864" d="M-158 -190l25 108h874l-26 -108h-873z" />
<glyph unicode="`" horiz-adv-x="380" d="M207 1434h149l166 -295h-104z" />
<glyph unicode="a" d="M63 326q0 110 31 228.5t86.5 222t144 170.5t191.5 67q89 0 158.5 -45t105.5 -129l33 149h145l-219 -989h-147l31 135q-111 -160 -269 -160q-133 0 -212 93.5t-79 257.5zM219 346q0 -116 51.5 -178t143.5 -62q69 0 133.5 48t105.5 118l101 447q-22 71 -80.5 117.5 t-134.5 46.5q-72 0 -134.5 -54.5t-101.5 -137t-61.5 -174t-22.5 -171.5z" />
<glyph unicode="b" d="M25 0l301 1366h145l-113 -512q111 160 269 160q135 0 213 -92t78 -258q0 -72 -13.5 -150t-39 -155t-65 -146.5t-88 -122.5t-112 -84t-133.5 -31q-90 0 -158.5 45.5t-105.5 129.5l-33 -150h-145zM229 270q22 -71 80.5 -117.5t134.5 -46.5q72 0 134.5 54.5t101.5 137 t61.5 174t22.5 171.5q0 115 -52.5 177.5t-144.5 62.5q-67 0 -131.5 -47.5t-107.5 -118.5z" />
<glyph unicode="c" horiz-adv-x="833" d="M68 367q0 90 22 182t66 175t102.5 148t138 103.5t166.5 38.5q197 0 287 -144l-94 -94q-30 54 -79.5 80.5t-109.5 26.5q-79 0 -147 -49t-110.5 -126t-66.5 -165.5t-24 -171.5q0 -130 64 -197.5t170 -67.5q111 0 190 93l59 -107q-114 -117 -270 -117q-166 0 -265 102.5 t-99 289.5z" />
<glyph unicode="d" d="M63 326q0 110 31 228.5t86.5 222t144 170.5t191.5 67q89 0 158.5 -45t105.5 -129l115 526h147l-303 -1366h-147l31 135q-111 -160 -269 -160q-133 0 -212 93.5t-79 257.5zM219 346q0 -116 51.5 -178t143.5 -62q69 0 133.5 48t105.5 118l101 447q-22 71 -80.5 117.5 t-134.5 46.5q-72 0 -134.5 -54.5t-101.5 -137t-61.5 -174t-22.5 -171.5z" />
<glyph unicode="e" horiz-adv-x="960" d="M66 367q0 102 34 213t94 209t155.5 161.5t205.5 63.5q159 0 250.5 -99t91.5 -272q0 -95 -29 -197h-647q-8 -39 -8 -92q0 -110 65 -183t189 -73q60 0 121.5 27.5t109.5 75.5l58 -99q-63 -59 -142 -93t-161 -34q-181 0 -284 104t-103 288zM240 557h501h9q10 48 10 92 q0 106 -57 174t-160 68q-112 0 -195.5 -102.5t-107.5 -231.5z" />
<glyph unicode="f" horiz-adv-x="518" d="M59 0l191 860h-131l28 129h132l24 119q63 278 283 278q118 0 184 -69l-76 -107q-36 45 -98 45q-113 0 -145 -147l-27 -119h168l-29 -129h-166l-190 -860h-148z" />
<glyph unicode="g" d="M-37 -260l92 113q38 -60 107 -91.5t157 -31.5q208 0 271 264l37 158q-112 -160 -275 -160q-129 0 -207.5 87.5t-78.5 260.5q0 84 18 175t55.5 180.5t89 160t126 114.5t159.5 44q80 0 155 -48t111 -126l33 149h145l-223 -995q-88 -395 -416 -395q-240 0 -356 141zM219 360 q0 -117 52 -178t143 -61q66 0 131.5 46.5t109.5 115.5l97 436q-24 69 -86.5 116.5t-135.5 47.5q-70 0 -131 -52t-99 -132t-59.5 -169.5t-21.5 -169.5z" />
<glyph unicode="h" horiz-adv-x="954" d="M25 0l301 1366h145l-113 -514q143 162 295 162q106 0 168 -53t62 -146q0 -19 -11 -74l-163 -741h-148l156 705q10 35 10 59q0 61 -38.5 90t-104.5 29q-65 0 -132.5 -47t-121.5 -115l-160 -721h-145z" />
<glyph unicode="i" horiz-adv-x="415" d="M25 0l219 989h145l-219 -989h-145zM266 1219q0 51 35.5 82.5t77.5 31.5q39 0 65.5 -26t26.5 -62q0 -51 -35.5 -81.5t-77.5 -30.5q-39 0 -65.5 25t-26.5 61z" />
<glyph unicode="j" horiz-adv-x="415" d="M-311 -324l75 107q29 -53 97 -53q101 0 135 149l248 1110h145l-246 -1110q-33 -145 -96.5 -212.5t-175.5 -67.5q-130 0 -182 77zM266 1219q0 51 35.5 82.5t77.5 31.5q39 0 65.5 -26t26.5 -62q0 -51 -35.5 -81.5t-77.5 -30.5q-39 0 -65.5 25t-26.5 61z" />
<glyph unicode="k" horiz-adv-x="899" d="M25 0l301 1366h145l-199 -903l525 526h178l-445 -444l228 -545h-166l-178 453l-185 -185l-59 -268h-145z" />
<glyph unicode="l" horiz-adv-x="415" d="M25 0l301 1366h145l-301 -1366h-145z" />
<glyph unicode="m" horiz-adv-x="1419" d="M25 0l219 989h145l-31 -137q50 66 123 114t154 48q96 0 152.5 -53t56.5 -115v-15q137 183 293 183q92 0 151.5 -53t59.5 -144q0 -13 -11 -76l-163 -741h-148l158 711q8 40 8 53q0 57 -34 88t-91 31q-59 0 -124.5 -47.5t-111.5 -114.5l-159 -721h-148l158 711q8 46 8 59 q0 53 -32 83t-93 30q-60 0 -122.5 -47t-112.5 -115l-160 -721h-145z" />
<glyph unicode="n" horiz-adv-x="954" d="M25 0l219 989h145l-31 -137q143 162 295 162q106 0 168 -52.5t62 -146.5q0 -25 -11 -74l-163 -741h-148l156 702q10 45 10 62q0 119 -143 119q-66 0 -133.5 -47t-120.5 -115l-160 -721h-145z" />
<glyph unicode="o" horiz-adv-x="978" d="M66 356q0 113 35 228.5t96 211.5t155.5 157t202.5 61q165 0 259.5 -101t94.5 -280q0 -113 -35 -228.5t-96 -211.5t-154.5 -157t-201.5 -61q-166 0 -261 101t-95 280zM219 358q0 -124 55 -188t154 -64q71 0 135 52.5t105.5 132t65.5 170t24 170.5q0 124 -55.5 188 t-155.5 64q-71 0 -134.5 -52.5t-104.5 -132t-65 -170t-24 -170.5z" />
<glyph unicode="p" horiz-adv-x="980" d="M-59 -377l303 1366h145l-31 -135q111 160 269 160q135 0 213 -92t78 -258q0 -72 -13.5 -150t-39 -155t-65 -146.5t-88 -122.5t-112 -84t-133.5 -31q-90 0 -158.5 45.5t-105.5 129.5l-117 -527h-145zM229 270q22 -71 80.5 -117.5t134.5 -46.5q72 0 134.5 54.5t101.5 137 t61.5 174t22.5 171.5q0 115 -52.5 177.5t-144.5 62.5q-67 0 -131.5 -47.5t-107.5 -118.5z" />
<glyph unicode="q" horiz-adv-x="980" d="M63 326q0 110 31 228.5t86.5 222t144 170.5t191.5 67q89 0 158.5 -45t105.5 -129l31 149h147l-303 -1366h-147l115 512q-111 -160 -269 -160q-133 0 -212 93.5t-79 257.5zM219 346q0 -116 51.5 -178t143.5 -62q69 0 133.5 48t105.5 118l101 447q-22 71 -80.5 117.5 t-134.5 46.5q-72 0 -134.5 -54.5t-101.5 -137t-61.5 -174t-22.5 -171.5z" />
<glyph unicode="r" horiz-adv-x="595" d="M25 0l219 989h145l-33 -145q63 84 137.5 125t180.5 41l-35 -152q-24 8 -61 8q-72 0 -139.5 -46.5t-112.5 -119.5l-156 -700h-145z" />
<glyph unicode="s" horiz-adv-x="794" d="M-14 131l92 98q34 -57 103 -96t151 -39q85 0 140.5 52t55.5 122q0 37 -22 68.5t-57 55.5t-77 48t-84.5 50.5t-77.5 56.5t-57 73t-22 95q0 126 89.5 212.5t242.5 86.5q97 0 180.5 -39.5t128.5 -102.5l-86 -96q-27 50 -92 84.5t-137 34.5q-81 0 -131 -43.5t-50 -110.5 q0 -33 22 -62.5t57.5 -53t78 -47t85 -50.5t78 -58t57.5 -75.5t22 -97.5q0 -134 -96 -228t-254 -94q-112 0 -200.5 40.5t-139.5 115.5z" />
<glyph unicode="t" horiz-adv-x="538" d="M90 137q0 27 6 68l148 655h-131l28 129h131l60 271h147l-59 -271h166l-29 -129h-166l-141 -631q-6 -24 -6 -49q0 -74 80 -74q46 0 77 31l21 -117q-55 -45 -135 -45q-95 0 -146 40.5t-51 121.5z" />
<glyph unicode="u" horiz-adv-x="952" d="M70 174q0 44 10 74l162 741h147l-156 -702q-8 -36 -8 -62q0 -61 38 -90t104 -29t133.5 45.5t117.5 112.5l162 725h148l-219 -989h-148l31 137q-143 -162 -295 -162q-104 0 -165.5 52.5t-61.5 146.5z" />
<glyph unicode="v" horiz-adv-x="837" d="M121 989h153l66 -813l430 813h164l-545 -989h-162z" />
<glyph unicode="w" horiz-adv-x="1308" d="M135 989h148l20 -790l385 790h137l35 -790l373 790h160l-486 -989h-149l-39 795l-387 -795h-150z" />
<glyph unicode="x" horiz-adv-x="833" d="M-86 0l414 504l-178 485h157l127 -377l297 377h170l-395 -485l192 -504h-157l-142 397l-315 -397h-170z" />
<glyph unicode="y" horiz-adv-x="837" d="M-109 -379l52 127q20 -14 71 -14q36 0 63.5 20.5t57.5 73.5l90 156l-104 1005h153l68 -811l428 811h164l-664 -1196q-58 -105 -119.5 -149.5t-144.5 -44.5q-66 0 -115 22z" />
<glyph unicode="z" horiz-adv-x="794" d="M-23 0l25 115l590 745h-424l29 129h610l-25 -112l-592 -748h433l-27 -129h-619z" />
<glyph unicode="{" horiz-adv-x="473" d="M-33 -199q0 30 8 58l99 448q6 36 6 39q0 46 -21.5 75.5t-58.5 29.5l23 98q55 0 89.5 39.5t47.5 103.5l100 453q27 122 100.5 183t180.5 61h94l-25 -109h-94q-53 0 -89.5 -34.5t-51.5 -100.5l-105 -477q-16 -71 -46.5 -115.5t-86.5 -65.5q60 -29 60 -110q0 -33 -9 -70 l-98 -448q-4 -24 -4 -39q0 -45 26.5 -73t65.5 -28h86l-24 -108h-74q-80 0 -139.5 53t-59.5 137z" />
<glyph unicode="|" horiz-adv-x="397" d="M184 -41v1448h111v-1448h-111z" />
<glyph unicode="}" horiz-adv-x="473" d="M-164 -389l25 108h94q53 0 89.5 35t51.5 101l105 477q32 143 133 180q-60 31 -60 111q0 31 9 69l98 449q4 24 4 39q0 45 -26.5 72.5t-65.5 27.5h-86l24 109h74q80 0 139.5 -53.5t59.5 -139.5q0 -19 -6 -55l-101 -449q-4 -24 -4 -39q0 -46 21 -75t59 -29l-22 -98 q-108 0 -140 -144l-100 -452q-27 -122 -100.5 -183t-180.5 -61h-94z" />
<glyph unicode="~" horiz-adv-x="919" d="M139 879q20 93 47.5 172t68 153.5t97.5 117t125 42.5q52 0 86 -21.5t48.5 -56.5t22 -77t11 -83.5t9 -76.5t22 -56.5t45.5 -21.5q132 0 223 395l109 -10q-106 -488 -340 -488q-70 0 -107 40.5t-46 98t-13 115t-21 98t-57 40.5q-129 0 -221 -394z" />
<glyph unicode="&#xa1;" horiz-adv-x="466" d="M-51 -377l248 987h122l-188 -987h-182zM213 893q0 49 34.5 83t84.5 34q41 0 70.5 -30t29.5 -71q0 -49 -35.5 -83.5t-85.5 -34.5q-41 0 -69.5 29.5t-28.5 72.5z" />
<glyph unicode="&#xa2;" horiz-adv-x="833" d="M68 367q0 108 33 218.5t91 202t147 153.5t191 71l33 145h117l-35 -151q136 -27 205 -136l-94 -94q-49 85 -140 101l-170 -771h7q111 0 190 93l59 -107q-114 -117 -270 -117h-16l-39 -180h-117l43 199q-111 34 -173 129.5t-62 243.5zM219 371q0 -177 115 -238l166 739 q-85 -24 -151.5 -109t-98 -188.5t-31.5 -203.5z" />
<glyph unicode="&#xa3;" horiz-adv-x="921" d="M4 106q128 60 216.5 174t88.5 230q0 15 -4 43h-244l23 106h190q-3 8 -24.5 55t-28 66.5t-15.5 60t-9 79.5q0 124 60 231.5t162 171t220 63.5q130 0 227 -66t117 -179l-143 -56q-14 74 -66.5 119t-132.5 45q-108 0 -189 -98t-81 -246q0 -46 11.5 -86.5t34 -89t29.5 -70.5 h228l-25 -106h-182q0 -112 -67 -217t-152 -160q52 19 84 19q59 0 141.5 -38t128.5 -38q92 0 164 76l35 -129q-93 -93 -217 -93q-68 0 -127 22.5t-112.5 45t-108.5 22.5q-84 0 -199 -77z" />
<glyph unicode="&#xa4;" horiz-adv-x="1069" d="M23 283l157 129q-35 64 -49 109.5t-14 111.5q0 193 164 354l-76 100l65 54l80 -99q122 88 273 88q167 0 292 -116l160 131l51 -62l-159 -131q63 -104 63 -221q0 -187 -164 -354l78 -98l-70 -56l-75 101q-126 -91 -271 -91q-170 0 -297 121l-161 -135zM217 645 q0 -139 89 -226t229 -87q157 0 276 115.5t119 271.5q0 139 -89 226t-229 87q-157 0 -276 -115.5t-119 -271.5z" />
<glyph unicode="&#xa5;" horiz-adv-x="1026" d="M-10 252l22 104h394l49 222h-394l23 104h338l-215 684h172l182 -631l461 631h190l-518 -684h326l-23 -104h-381l-49 -222h379l-22 -104h-379l-56 -252h-161l55 252h-393z" />
<glyph unicode="&#xa6;" horiz-adv-x="397" d="M184 -41v647h111v-647h-111zM184 760v647h111v-647h-111z" />
<glyph unicode="&#xa7;" horiz-adv-x="798" d="M-59 -18l92 92q39 -59 107.5 -93t154.5 -34q85 0 142 55.5t57 134.5q0 38 -21.5 70t-56 55.5t-76.5 46t-84 48.5t-76.5 56t-56 74.5t-21.5 98.5q0 103 70.5 179.5t194.5 96.5q-152 91 -152 230q0 123 91.5 208.5t232.5 85.5q221 0 329 -137l-88 -82q-77 109 -235 109 q-80 0 -133.5 -48.5t-53.5 -117.5q0 -52 41 -93t99 -71.5t116 -64.5t99 -89.5t41 -129.5q0 -100 -59 -178t-173 -115q119 -80 119 -211q0 -133 -95 -228.5t-247 -95.5q-243 0 -358 148zM246 612q0 -59 44.5 -103t133.5 -85q184 57 184 207q0 60 -36 100.5t-97 73.5 q-118 -16 -173.5 -69.5t-55.5 -123.5z" />
<glyph unicode="&#xa8;" horiz-adv-x="548" d="M166 1227q0 40 31 71t71 31q35 0 58.5 -24t23.5 -58q0 -41 -30.5 -71.5t-71.5 -30.5q-35 0 -58.5 23.5t-23.5 58.5zM522 1227q0 40 32 71t73 31q34 0 58 -24t24 -58q0 -41 -31.5 -71.5t-73.5 -30.5q-35 0 -58.5 23.5t-23.5 58.5z" />
<glyph unicode="&#xa9;" horiz-adv-x="1593" d="M131 684q0 192 94.5 355t257 257.5t353.5 94.5q192 0 355 -94.5t258 -257.5t95 -355q0 -143 -56 -274t-151 -226t-226 -151t-275 -56q-191 0 -353.5 95t-257 258t-94.5 354zM193 684q0 -130 51.5 -249t137.5 -206t205 -138.5t249 -51.5t250 51.5t207 138.5t138.5 206 t51.5 249t-51.5 249.5t-138.5 206t-207 138t-250 51.5t-249 -51.5t-205 -138t-137.5 -206t-51.5 -249.5zM406 629q0 102 41 195t108 157.5t155 102.5t179 38q219 0 317 -164l-61 -43q-75 140 -258 140q-74 0 -147 -32t-131 -87t-94 -135.5t-36 -169.5q0 -133 89.5 -225.5 t230.5 -92.5q64 0 128 28t107 71l39 -58q-129 -106 -274 -106q-180 0 -286.5 108.5t-106.5 272.5z" />
<glyph unicode="&#xaa;" horiz-adv-x="718" d="M166 897q0 101 37.5 199t109.5 164.5t160 66.5q61 0 109.5 -27.5t74.5 -78.5l21 90h113l-142 -643h-114l20 92q-79 -109 -186 -109q-90 0 -146.5 62t-56.5 184zM285 905q0 -77 35 -119.5t96 -42.5q82 0 159 105l64 291q-14 41 -54 68.5t-87 27.5q-60 0 -110 -52 t-76.5 -127.5t-26.5 -150.5z" />
<glyph unicode="&#xab;" horiz-adv-x="782" d="M59 498l338 362h144l-346 -371l170 -360h-132zM326 498l338 362h143l-346 -371l170 -360h-131z" />
<glyph unicode="&#xac;" horiz-adv-x="903" d="M131 829l25 105h778l-111 -500h-108l88 395h-672z" />
<glyph unicode="&#xad;" horiz-adv-x="548" d="M45 430l29 131h426l-29 -131h-426z" />
<glyph unicode="&#xae;" horiz-adv-x="1011" d="M172 952q0 181 127 307.5t307 126.5q119 0 219 -57.5t157.5 -157.5t57.5 -219q0 -180 -127.5 -307t-308.5 -127q-180 0 -306 127t-126 307zM231 952q0 -156 108.5 -265t264.5 -109q157 0 267 109.5t110 264.5q0 158 -110 266.5t-267 108.5t-265 -108.5t-108 -266.5z M385 702l109 498h188q61 0 102 -35.5t41 -95.5q0 -71 -50.5 -119.5t-112.5 -48.5l90 -199h-78l-86 197h-94l-43 -197h-66zM506 958h139q46 0 78.5 30t32.5 73q0 39 -23.5 60.5t-60.5 21.5h-125z" />
<glyph unicode="&#xaf;" horiz-adv-x="626" d="M158 1210l20 95h625l-21 -95h-624z" />
<glyph unicode="&#xb0;" horiz-adv-x="591" d="M188 1137q0 103 72.5 176t175.5 73t175.5 -73t72.5 -176q0 -101 -72.5 -173.5t-175.5 -72.5t-175.5 72.5t-72.5 173.5zM285 1137q0 -62 43 -106t106 -44t109.5 44.5t46.5 105.5q0 63 -45.5 108t-108.5 45t-107 -45t-44 -108z" />
<glyph unicode="&#xb1;" horiz-adv-x="897" d="M-41 45l21 105h780l-23 -105h-778zM92 651l23 105h334l79 362h113l-80 -362h334l-25 -105h-331l-84 -377h-113l84 377h-334z" />
<glyph unicode="&#xb2;" horiz-adv-x="669" d="M164 862l20 96q279 218 358 291q125 115 142 197q4 17 4 35q0 56 -38.5 85t-96.5 29q-117 0 -195 -96l-59 78q108 117 258 117q105 0 179.5 -53.5t74.5 -151.5q0 -76 -64.5 -163.5t-137 -150t-245.5 -198.5q-5 -4 -7 -6t-6 -5t-7 -5h354l-20 -99h-514z" />
<glyph unicode="&#xb3;" horiz-adv-x="669" d="M180 995l86 66q28 -55 76.5 -85t110.5 -30q75 0 118 53t43 123q0 53 -41.5 83t-107.5 30q-47 0 -59 -2l22 98q18 -2 92 -2q73 0 119.5 41.5t46.5 112.5q0 51 -40.5 81.5t-102.5 30.5q-103 0 -187 -90l-57 74q48 53 114.5 84t137.5 31q113 0 184.5 -51.5t71.5 -145.5 q0 -82 -57 -146.5t-148 -76.5q57 -14 94 -60t37 -110q0 -96 -75 -176t-199 -80q-98 0 -171.5 39t-107.5 108z" />
<glyph unicode="&#xb4;" horiz-adv-x="380" d="M137 1139l299 295h152l-342 -295h-109z" />
<glyph unicode="&#xb6;" horiz-adv-x="919" d="M162 981q0 97 50.5 185t143 144t203.5 56h402l-349 -1571h-88l330 1481h-184l-330 -1481h-90l192 867q-116 0 -198 91t-82 228z" />
<glyph unicode="&#xb7;" horiz-adv-x="468" d="M125 492q0 49 34.5 83.5t84.5 34.5q41 0 70.5 -29.5t29.5 -70.5q0 -49 -35.5 -84t-85.5 -35q-41 0 -69.5 29.5t-28.5 71.5z" />
<glyph unicode="&#xb8;" horiz-adv-x="378" d="M-182 -313l53 69q55 -67 145 -67q52 0 82.5 28.5t30.5 69.5q0 27 -16.5 43t-46.5 16q-35 0 -64 -32l-57 36l100 173h90l-84 -136q27 21 60 21q48 0 78 -32t30 -85q0 -78 -59 -130t-148 -52q-119 0 -194 78z" />
<glyph unicode="&#xb9;" horiz-adv-x="460" d="M242 1466l260 215h104l-180 -819h-121l146 658l-152 -129z" />
<glyph unicode="&#xba;" horiz-adv-x="712" d="M170 913q0 96 40 189.5t118.5 159t175.5 65.5q120 0 187 -71t67 -191q0 -96 -40 -189.5t-118.5 -159t-175.5 -65.5q-120 0 -187 71t-67 191zM287 909q0 -75 36.5 -118t102.5 -43q49 0 91.5 32.5t68.5 82t40.5 104t14.5 102.5q0 75 -37.5 117.5t-103.5 42.5 q-65 0 -116 -56t-74 -127.5t-23 -136.5z" />
<glyph unicode="&#xbb;" horiz-adv-x="782" d="M-23 129l347 373l-170 358h131l174 -368l-338 -363h-144zM244 129l346 373l-170 358h131l174 -368l-338 -363h-143z" />
<glyph unicode="&#xbc;" horiz-adv-x="1378" d="M133 0l1016 1366h98l-1018 -1366h-96zM172 1151l260 215h105l-181 -819h-120l145 657l-152 -129zM700 207l21 92l424 520h153l-114 -516h96l-20 -96h-97l-45 -207h-117l46 207h-347zM834 303h233l86 387z" />
<glyph unicode="&#xbd;" horiz-adv-x="1449" d="M133 0l1016 1366h98l-1018 -1366h-96zM172 1151l260 215h105l-181 -819h-120l145 657l-152 -129zM754 0l20 96q278 217 355 288q126 115 145 196q4 19 4 38q0 56 -38.5 85.5t-96.5 29.5q-117 0 -195 -96l-59 78q107 116 258 116q105 0 179.5 -53t74.5 -151 q0 -40 -11.5 -77t-48 -83t-61 -75.5t-95.5 -90t-104 -87t-132 -104.5l-15 -12h354l-20 -98h-514z" />
<glyph unicode="&#xbe;" horiz-adv-x="1527" d="M111 680l86 65q57 -114 186 -114q75 0 118.5 53t43.5 123q0 53 -42 83t-108 30q-47 0 -59 -2l22 98q18 -2 93 -2q73 0 119 41t46 112q0 51 -40.5 82t-102.5 31q-102 0 -186 -90l-58 74q48 53 114.5 83.5t137.5 30.5q113 0 184.5 -51t71.5 -145q0 -82 -57 -147t-148 -77 q57 -14 94.5 -60t37.5 -110q0 -96 -75.5 -176t-199.5 -80q-98 0 -171 39.5t-107 108.5zM283 0l1015 1366h99l-1018 -1366h-96zM850 207l20 92l424 520h154l-115 -516h97l-21 -96h-96l-45 -207h-117l45 207h-346zM983 303h234l86 387z" />
<glyph unicode="&#xbf;" horiz-adv-x="681" d="M-78 -127q0 68 24.5 127t64 101t86.5 79t94.5 70t87 65t64 72t24.5 84q0 47 -27 88l133 53q35 -57 35 -137q0 -59 -23 -109.5t-59.5 -87t-81 -70t-89 -65t-81 -65t-59.5 -77.5t-23 -95q0 -70 51.5 -116t141.5 -46q127 0 227 92l61 -110q-139 -125 -317 -125 q-148 0 -241 77.5t-93 194.5zM379 891q0 49 35.5 84t85.5 35q41 0 70.5 -30t29.5 -71q0 -49 -35.5 -83.5t-85.5 -34.5q-41 0 -70.5 29.5t-29.5 70.5z" />
<glyph unicode="&#xc0;" horiz-adv-x="1048" d="M-94 0l712 1366h195l109 -1366h-170l-21 309h-487l-156 -309h-182zM311 455h418l-47 731zM549 1786h149l166 -295h-104z" />
<glyph unicode="&#xc1;" horiz-adv-x="1048" d="M-94 0l712 1366h195l109 -1366h-170l-21 309h-487l-156 -309h-182zM311 455h418l-47 731zM623 1491l299 295h151l-342 -295h-108z" />
<glyph unicode="&#xc2;" horiz-adv-x="1048" d="M-94 0l712 1366h195l109 -1366h-170l-21 309h-487l-156 -309h-182zM311 455h418l-47 731zM508 1491l229 295h144l104 -295h-90l-100 215l-189 -215h-98z" />
<glyph unicode="&#xc3;" horiz-adv-x="1048" d="M-94 0l712 1366h195l109 -1366h-170l-21 309h-487l-156 -309h-182zM311 455h418l-47 731zM463 1499q58 275 217 275q38 0 62.5 -20t36 -48t21 -56.5t26.5 -48.5t44 -20q73 0 115 180h88q-27 -126 -80.5 -200t-136.5 -74q-38 0 -63 20t-36.5 48t-21 56t-26 48t-43.5 20 q-76 0 -115 -180h-88z" />
<glyph unicode="&#xc4;" horiz-adv-x="1048" d="M-94 0l712 1366h195l109 -1366h-170l-21 309h-487l-156 -309h-182zM311 455h418l-47 731zM494 1573q0 40 31 71t71 31q35 0 58.5 -24t23.5 -58q0 -41 -31 -71.5t-72 -30.5q-35 0 -58 23.5t-23 58.5zM850 1573q0 40 31.5 71t72.5 31q34 0 58 -24t24 -58q0 -41 -31.5 -71.5 t-72.5 -30.5q-35 0 -58.5 23.5t-23.5 58.5z" />
<glyph unicode="&#xc5;" horiz-adv-x="1048" d="M-94 0l712 1366h195l109 -1366h-170l-21 309h-487l-156 -309h-182zM311 455h418l-47 731zM582 1587q0 82 60.5 143.5t143.5 61.5q73 0 119.5 -48t46.5 -122q0 -83 -60.5 -144t-143.5 -61q-73 0 -119.5 48t-46.5 122zM659 1593q0 -42 27 -70t68 -28q50 0 86.5 36t36.5 85 q0 43 -27 70.5t-70 27.5q-50 0 -85.5 -36t-35.5 -85z" />
<glyph unicode="&#xc6;" horiz-adv-x="1540" d="M-88 0l950 1366h770l-30 -145h-541l-100 -449h526l-33 -145h-526l-107 -482h541l-31 -145h-702l65 309h-391l-209 -309h-182zM395 455h332l160 716z" />
<glyph unicode="&#xc7;" horiz-adv-x="1093" d="M102 469q0 131 30 263.5t88 250t135.5 208.5t180.5 144.5t216 53.5q160 0 263.5 -87.5t147.5 -232.5l-153 -45q-35 108 -104.5 163.5t-166.5 55.5q-126 0 -235.5 -119t-170.5 -297t-61 -358q0 -165 78.5 -256.5t218.5 -91.5q148 0 279 166l125 -76q-172 -236 -414 -236 h-20l-54 -88q27 21 60 21q48 0 78 -32t30 -85q0 -78 -59 -130t-148 -52q-119 0 -194 78l53 69q55 -67 146 -67q52 0 82 28t30 70q0 27 -16.5 43t-46.5 16q-35 0 -64 -32l-57 36l78 136q-164 30 -259.5 156.5t-95.5 326.5z" />
<glyph unicode="&#xc8;" horiz-adv-x="946" d="M33 0l301 1366h702l-30 -145h-541l-98 -449h526l-33 -145h-526l-107 -482h541l-33 -145h-702zM522 1786h150l166 -295h-105z" />
<glyph unicode="&#xc9;" horiz-adv-x="946" d="M33 0l301 1366h702l-30 -145h-541l-98 -449h526l-33 -145h-526l-107 -482h541l-33 -145h-702zM594 1491l299 295h151l-342 -295h-108z" />
<glyph unicode="&#xca;" horiz-adv-x="946" d="M33 0l301 1366h702l-30 -145h-541l-98 -449h526l-33 -145h-526l-107 -482h541l-33 -145h-702zM477 1491l230 295h143l104 -295h-90l-100 215l-189 -215h-98z" />
<glyph unicode="&#xcb;" horiz-adv-x="946" d="M33 0l301 1366h702l-30 -145h-541l-98 -449h526l-33 -145h-526l-107 -482h541l-33 -145h-702zM465 1573q0 40 31 71t71 31q35 0 58.5 -24t23.5 -58q0 -41 -30.5 -71.5t-71.5 -30.5q-35 0 -58.5 23.5t-23.5 58.5zM821 1573q0 40 32 71t73 31q34 0 58 -24t24 -58 q0 -41 -31.5 -71.5t-73.5 -30.5q-35 0 -58.5 23.5t-23.5 58.5z" />
<glyph unicode="&#xcc;" horiz-adv-x="450" d="M33 0l301 1366h164l-301 -1366h-164zM248 1786h149l166 -295h-104z" />
<glyph unicode="&#xcd;" horiz-adv-x="450" d="M33 0l301 1366h164l-301 -1366h-164zM324 1491l299 295h151l-342 -295h-108z" />
<glyph unicode="&#xce;" horiz-adv-x="450" d="M33 0l301 1366h164l-301 -1366h-164zM207 1491l229 295h144l104 -295h-90l-100 215l-189 -215h-98z" />
<glyph unicode="&#xcf;" horiz-adv-x="450" d="M33 0l301 1366h164l-301 -1366h-164zM197 1573q0 40 31 71t71 31q35 0 58.5 -24t23.5 -58q0 -41 -30.5 -71.5t-71.5 -30.5q-35 0 -58.5 23.5t-23.5 58.5zM553 1573q0 40 31.5 71t72.5 31q34 0 58 -24t24 -58q0 -41 -31.5 -71.5t-72.5 -30.5q-35 0 -58.5 23.5t-23.5 58.5z " />
<glyph unicode="&#xd0;" horiz-adv-x="1206" d="M57 616l31 136h160l135 614h356q85 0 162 -34t136.5 -95.5t94.5 -157.5t35 -211q0 -75 -12 -154.5t-39 -165t-66.5 -164t-98.5 -149t-131 -122.5t-168 -82.5t-206 -30.5h-364l135 616h-160zM276 145h199q100 0 187.5 46.5t148 121.5t104 170.5t64 192.5t20.5 188 q0 164 -82 260.5t-208 96.5h-195l-104 -469h260l-31 -136h-258z" />
<glyph unicode="&#xd1;" horiz-adv-x="1173" d="M33 0l301 1366h164l331 -1026l230 1026h162l-301 -1366h-156l-336 1049l-231 -1049h-164zM526 1499q58 275 217 275q38 0 62.5 -20t36 -48t21.5 -56.5t27 -48.5t44 -20q73 0 115 180h88q-27 -126 -80.5 -200t-136.5 -74q-38 0 -63 20t-36.5 48t-21.5 56t-26.5 48 t-43.5 20q-76 0 -115 -180h-88z" />
<glyph unicode="&#xd2;" horiz-adv-x="1230" d="M102 469q0 126 28.5 256t85.5 248.5t133.5 211.5t181.5 148.5t221 55.5q205 0 330.5 -136.5t125.5 -359.5q0 -125 -28.5 -255t-85.5 -248.5t-133.5 -211t-181 -148t-220.5 -55.5q-207 0 -332 135.5t-125 358.5zM272 469q0 -162 81.5 -255t215.5 -93q128 0 237.5 118.5 t169.5 295.5t60 358q0 163 -82 256.5t-215 93.5q-97 0 -185.5 -70.5t-149 -181.5t-96.5 -249t-36 -273zM641 1786h150l165 -295h-104z" />
<glyph unicode="&#xd3;" horiz-adv-x="1230" d="M102 469q0 126 28.5 256t85.5 248.5t133.5 211.5t181.5 148.5t221 55.5q205 0 330.5 -136.5t125.5 -359.5q0 -125 -28.5 -255t-85.5 -248.5t-133.5 -211t-181 -148t-220.5 -55.5q-207 0 -332 135.5t-125 358.5zM272 469q0 -162 81.5 -255t215.5 -93q128 0 237.5 118.5 t169.5 295.5t60 358q0 163 -82 256.5t-215 93.5q-97 0 -185.5 -70.5t-149 -181.5t-96.5 -249t-36 -273zM713 1491l299 295h151l-342 -295h-108z" />
<glyph unicode="&#xd4;" horiz-adv-x="1230" d="M102 469q0 126 28.5 256t85.5 248.5t133.5 211.5t181.5 148.5t221 55.5q205 0 330.5 -136.5t125.5 -359.5q0 -125 -28.5 -255t-85.5 -248.5t-133.5 -211t-181 -148t-220.5 -55.5q-207 0 -332 135.5t-125 358.5zM272 469q0 -162 81.5 -255t215.5 -93q128 0 237.5 118.5 t169.5 295.5t60 358q0 163 -82 256.5t-215 93.5q-97 0 -185.5 -70.5t-149 -181.5t-96.5 -249t-36 -273zM598 1491l229 295h144l104 -295h-90l-100 215l-189 -215h-98z" />
<glyph unicode="&#xd5;" horiz-adv-x="1230" d="M102 469q0 126 28.5 256t85.5 248.5t133.5 211.5t181.5 148.5t221 55.5q205 0 330.5 -136.5t125.5 -359.5q0 -125 -28.5 -255t-85.5 -248.5t-133.5 -211t-181 -148t-220.5 -55.5q-207 0 -332 135.5t-125 358.5zM272 469q0 -162 81.5 -255t215.5 -93q128 0 237.5 118.5 t169.5 295.5t60 358q0 163 -82 256.5t-215 93.5q-97 0 -185.5 -70.5t-149 -181.5t-96.5 -249t-36 -273zM561 1499q58 275 217 275q38 0 62.5 -20t36 -48t21.5 -56.5t27 -48.5t44 -20q72 0 114 180h88q-27 -126 -80.5 -200t-136.5 -74q-38 0 -63 20t-36.5 48t-21 56t-26 48 t-43.5 20q-76 0 -115 -180h-88z" />
<glyph unicode="&#xd6;" horiz-adv-x="1230" d="M102 469q0 126 28.5 256t85.5 248.5t133.5 211.5t181.5 148.5t221 55.5q205 0 330.5 -136.5t125.5 -359.5q0 -125 -28.5 -255t-85.5 -248.5t-133.5 -211t-181 -148t-220.5 -55.5q-207 0 -332 135.5t-125 358.5zM272 469q0 -162 81.5 -255t215.5 -93q128 0 237.5 118.5 t169.5 295.5t60 358q0 163 -82 256.5t-215 93.5q-97 0 -185.5 -70.5t-149 -181.5t-96.5 -249t-36 -273zM584 1573q0 40 31 71t71 31q35 0 58.5 -24t23.5 -58q0 -41 -30.5 -71.5t-71.5 -30.5q-35 0 -58.5 23.5t-23.5 58.5zM940 1573q0 40 31.5 71t72.5 31q34 0 58 -24t24 -58 q0 -41 -31.5 -71.5t-72.5 -30.5q-35 0 -58.5 23.5t-23.5 58.5z" />
<glyph unicode="&#xd7;" horiz-adv-x="897" d="M92 426l326 264l-203 258l84 68l199 -258l323 264l66 -80l-324 -264l201 -258l-84 -68l-201 258l-321 -264z" />
<glyph unicode="&#xd8;" horiz-adv-x="1230" d="M70 0l120 158q-88 127 -88 311q0 126 28.5 256t85.5 248.5t133.5 211.5t181.5 148.5t221 55.5q176 0 299 -107l63 84h121l-119 -156q92 -131 92 -317q0 -125 -28.5 -255t-85.5 -248.5t-133.5 -211t-181 -148t-220.5 -55.5q-184 0 -305 109l-64 -84h-120zM272 469 q0 -92 29 -168l649 852q-81 90 -211 90q-97 0 -185.5 -70.5t-149 -181.5t-96.5 -249t-36 -273zM354 213q80 -92 215 -92q128 0 237.5 118.5t169.5 295.5t60 358q0 94 -32 172z" />
<glyph unicode="&#xd9;" horiz-adv-x="1165" d="M121 348q0 34 10 96l203 922h164l-205 -926q-8 -56 -8 -78q0 -111 67.5 -176t184.5 -65q127 0 200 78t109 241l203 926h163l-202 -924q-53 -232 -167.5 -349.5t-312.5 -117.5q-188 0 -298.5 100t-110.5 273zM608 1786h150l166 -295h-105z" />
<glyph unicode="&#xda;" horiz-adv-x="1165" d="M121 348q0 34 10 96l203 922h164l-205 -926q-8 -56 -8 -78q0 -111 67.5 -176t184.5 -65q127 0 200 78t109 241l203 926h163l-202 -924q-53 -232 -167.5 -349.5t-312.5 -117.5q-188 0 -298.5 100t-110.5 273zM678 1491l299 295h151l-342 -295h-108z" />
<glyph unicode="&#xdb;" horiz-adv-x="1165" d="M121 348q0 34 10 96l203 922h164l-205 -926q-8 -56 -8 -78q0 -111 67.5 -176t184.5 -65q127 0 200 78t109 241l203 926h163l-202 -924q-53 -232 -167.5 -349.5t-312.5 -117.5q-188 0 -298.5 100t-110.5 273zM569 1491l230 295h143l105 -295h-91l-100 215l-188 -215h-99z " />
<glyph unicode="&#xdc;" horiz-adv-x="1165" d="M121 348q0 34 10 96l203 922h164l-205 -926q-8 -56 -8 -78q0 -111 67.5 -176t184.5 -65q127 0 200 78t109 241l203 926h163l-202 -924q-53 -232 -167.5 -349.5t-312.5 -117.5q-188 0 -298.5 100t-110.5 273zM553 1573q0 40 31 71t71 31q35 0 58.5 -24t23.5 -58 q0 -41 -30.5 -71.5t-71.5 -30.5q-35 0 -58.5 23.5t-23.5 58.5zM909 1573q0 40 32 71t73 31q34 0 58 -24t24 -58q0 -41 -31.5 -71.5t-73.5 -30.5q-35 0 -58.5 23.5t-23.5 58.5z" />
<glyph unicode="&#xdd;" horiz-adv-x="1026" d="M201 1366h172l182 -631l461 631h190l-596 -788l-127 -578h-161l127 578zM616 1491l299 295h152l-342 -295h-109z" />
<glyph unicode="&#xde;" horiz-adv-x="999" d="M33 0l301 1366h164l-56 -246h232q135 0 224 -94.5t89 -237.5q0 -67 -16.5 -134t-54 -131t-91.5 -113t-135.5 -79t-179.5 -30h-248l-65 -301h-164zM295 446h229q93 0 161.5 49t100 122.5t31.5 158.5q0 88 -52 144.5t-132 56.5h-221z" />
<glyph unicode="&#xdf;" horiz-adv-x="1075" d="M33 0l231 1040q35 158 134.5 252t250.5 94q130 0 224 -68t94 -175q0 -60 -26 -108.5t-64.5 -77t-84 -57t-84 -51t-64.5 -57.5t-26 -77q0 -45 39 -81.5t94.5 -65t111.5 -61.5t95 -87.5t39 -126.5q0 -59 -23.5 -115.5t-65.5 -102t-108.5 -73t-144.5 -27.5q-115 0 -196 38 t-146 122l90 94q95 -133 248 -133q84 0 138.5 52t54.5 126q0 35 -20.5 64t-53.5 50.5t-72.5 43t-79.5 45.5t-73 52.5t-53.5 70t-20.5 92.5q0 63 25.5 113t63.5 79.5t83 58.5t83 51t63.5 55t25.5 73q0 60 -51 96.5t-125 36.5q-82 0 -143.5 -55t-85.5 -160l-230 -1040h-147z " />
<glyph unicode="&#xe0;" d="M63 326q0 110 31 228.5t86.5 222t144 170.5t191.5 67q89 0 158.5 -45t105.5 -129l33 149h145l-219 -989h-147l31 135q-111 -160 -269 -160q-133 0 -212 93.5t-79 257.5zM219 346q0 -116 51.5 -178t143.5 -62q69 0 133.5 48t105.5 118l101 447q-22 71 -80.5 117.5 t-134.5 46.5q-72 0 -134.5 -54.5t-101.5 -137t-61.5 -174t-22.5 -171.5zM401 1434h150l166 -295h-105z" />
<glyph unicode="&#xe1;" d="M63 326q0 110 31 228.5t86.5 222t144 170.5t191.5 67q89 0 158.5 -45t105.5 -129l33 149h145l-219 -989h-147l31 135q-111 -160 -269 -160q-133 0 -212 93.5t-79 257.5zM219 346q0 -116 51.5 -178t143.5 -62q69 0 133.5 48t105.5 118l101 447q-22 71 -80.5 117.5 t-134.5 46.5q-72 0 -134.5 -54.5t-101.5 -137t-61.5 -174t-22.5 -171.5zM475 1139l299 295h152l-342 -295h-109z" />
<glyph unicode="&#xe2;" d="M63 326q0 110 31 228.5t86.5 222t144 170.5t191.5 67q89 0 158.5 -45t105.5 -129l33 149h145l-219 -989h-147l31 135q-111 -160 -269 -160q-133 0 -212 93.5t-79 257.5zM219 346q0 -116 51.5 -178t143.5 -62q69 0 133.5 48t105.5 118l101 447q-22 71 -80.5 117.5 t-134.5 46.5q-72 0 -134.5 -54.5t-101.5 -137t-61.5 -174t-22.5 -171.5zM360 1139l230 295h143l105 -295h-90l-101 215l-188 -215h-99z" />
<glyph unicode="&#xe3;" d="M63 326q0 110 31 228.5t86.5 222t144 170.5t191.5 67q89 0 158.5 -45t105.5 -129l33 149h145l-219 -989h-147l31 135q-111 -160 -269 -160q-133 0 -212 93.5t-79 257.5zM219 346q0 -116 51.5 -178t143.5 -62q69 0 133.5 48t105.5 118l101 447q-22 71 -80.5 117.5 t-134.5 46.5q-72 0 -134.5 -54.5t-101.5 -137t-61.5 -174t-22.5 -171.5zM322 1147q58 274 217 274q38 0 62.5 -20t36 -48t21 -56t26.5 -48t44 -20q73 0 115 180h88q-27 -126 -80.5 -200t-136.5 -74q-38 0 -63 20t-36.5 48t-21.5 56t-26.5 48t-43.5 20q-75 0 -114 -180h-88z " />
<glyph unicode="&#xe4;" d="M63 326q0 110 31 228.5t86.5 222t144 170.5t191.5 67q89 0 158.5 -45t105.5 -129l33 149h145l-219 -989h-147l31 135q-111 -160 -269 -160q-133 0 -212 93.5t-79 257.5zM219 346q0 -116 51.5 -178t143.5 -62q69 0 133.5 48t105.5 118l101 447q-22 71 -80.5 117.5 t-134.5 46.5q-72 0 -134.5 -54.5t-101.5 -137t-61.5 -174t-22.5 -171.5zM350 1227q0 40 31.5 71t71.5 31q35 0 58.5 -24t23.5 -58q0 -41 -31 -71.5t-72 -30.5q-35 0 -58.5 23.5t-23.5 58.5zM707 1227q0 40 31.5 71t72.5 31q34 0 58 -24t24 -58q0 -41 -31.5 -71.5 t-73.5 -30.5q-35 0 -58 23.5t-23 58.5z" />
<glyph unicode="&#xe5;" d="M63 326q0 110 31 228.5t86.5 222t144 170.5t191.5 67q89 0 158.5 -45t105.5 -129l33 149h145l-219 -989h-147l31 135q-111 -160 -269 -160q-133 0 -212 93.5t-79 257.5zM219 346q0 -116 51.5 -178t143.5 -62q69 0 133.5 48t105.5 118l101 447q-22 71 -80.5 117.5 t-134.5 46.5q-72 0 -134.5 -54.5t-101.5 -137t-61.5 -174t-22.5 -171.5zM449 1290q0 82 60.5 143.5t143.5 61.5q73 0 119.5 -48t46.5 -122q0 -83 -61 -144t-144 -61q-73 0 -119 48t-46 122zM526 1296q0 -42 27 -70t68 -28q50 0 86 36t36 85q0 43 -26.5 70.5t-69.5 27.5 q-49 0 -85 -35.5t-36 -85.5z" />
<glyph unicode="&#xe6;" horiz-adv-x="1574" d="M63 326q0 110 31 228.5t86.5 222t144 170.5t191.5 67q89 0 158.5 -45t105.5 -129l33 149h145l-36 -166q131 191 292 191q143 0 220 -93.5t77 -267.5q0 -105 -26 -207h-641q-8 -39 -8 -92q0 -110 66 -182t190 -72q122 0 225 103l57 -103q-128 -125 -280 -125 q-127 0 -204 62t-104 176l-47 -213h-145l29 135q-111 -160 -269 -160q-133 0 -212 93.5t-79 257.5zM219 346q0 -115 52 -177.5t143 -62.5q68 0 133 47.5t108 118.5l99 447q-22 71 -80.5 117.5t-134.5 46.5q-72 0 -134.5 -54.5t-101.5 -137t-61.5 -174t-22.5 -171.5zM862 557 h504q10 48 10 92q0 107 -53 174.5t-156 67.5q-112 0 -196.5 -102.5t-108.5 -231.5z" />
<glyph unicode="&#xe7;" horiz-adv-x="833" d="M68 367q0 90 22 182t66 175t102.5 148t138 103.5t166.5 38.5q197 0 287 -144l-94 -94q-30 54 -79.5 80.5t-109.5 26.5q-79 0 -147 -49t-110.5 -126t-66.5 -165.5t-24 -171.5q0 -130 64 -197.5t170 -67.5q111 0 190 93l59 -107q-114 -117 -270 -117h-14l-53 -88 q27 21 59 21q48 0 78 -32t30 -85q0 -78 -58.5 -130t-147.5 -52q-120 0 -195 78l53 69q55 -67 146 -67q52 0 82 28t30 70q0 27 -16.5 43t-46.5 16q-35 0 -64 -32l-57 36l78 136q-125 25 -196.5 123.5t-71.5 257.5z" />
<glyph unicode="&#xe8;" horiz-adv-x="960" d="M66 367q0 102 34 213t94 209t155.5 161.5t205.5 63.5q159 0 250.5 -99t91.5 -272q0 -95 -29 -197h-647q-8 -39 -8 -92q0 -110 65 -183t189 -73q60 0 121.5 27.5t109.5 75.5l58 -99q-63 -59 -142 -93t-161 -34q-181 0 -284 104t-103 288zM240 557h501h9q10 48 10 92 q0 106 -57 174t-160 68q-112 0 -195.5 -102.5t-107.5 -231.5zM436 1434h150l166 -295h-105z" />
<glyph unicode="&#xe9;" horiz-adv-x="960" d="M66 367q0 102 34 213t94 209t155.5 161.5t205.5 63.5q159 0 250.5 -99t91.5 -272q0 -95 -29 -197h-647q-8 -39 -8 -92q0 -110 65 -183t189 -73q60 0 121.5 27.5t109.5 75.5l58 -99q-63 -59 -142 -93t-161 -34q-181 0 -284 104t-103 288zM240 557h501h9q10 48 10 92 q0 106 -57 174t-160 68q-112 0 -195.5 -102.5t-107.5 -231.5zM510 1139l299 295h152l-343 -295h-108z" />
<glyph unicode="&#xea;" horiz-adv-x="960" d="M66 367q0 102 34 213t94 209t155.5 161.5t205.5 63.5q159 0 250.5 -99t91.5 -272q0 -95 -29 -197h-647q-8 -39 -8 -92q0 -110 65 -183t189 -73q60 0 121.5 27.5t109.5 75.5l58 -99q-63 -59 -142 -93t-161 -34q-181 0 -284 104t-103 288zM240 557h501h9q10 48 10 92 q0 106 -57 174t-160 68q-112 0 -195.5 -102.5t-107.5 -231.5zM393 1139l230 295h143l104 -295h-90l-100 215l-188 -215h-99z" />
<glyph unicode="&#xeb;" horiz-adv-x="960" d="M66 367q0 102 34 213t94 209t155.5 161.5t205.5 63.5q159 0 250.5 -99t91.5 -272q0 -95 -29 -197h-647q-8 -39 -8 -92q0 -110 65 -183t189 -73q60 0 121.5 27.5t109.5 75.5l58 -99q-63 -59 -142 -93t-161 -34q-181 0 -284 104t-103 288zM240 557h501h9q10 48 10 92 q0 106 -57 174t-160 68q-112 0 -195.5 -102.5t-107.5 -231.5zM379 1227q0 40 31 71t71 31q35 0 58.5 -24t23.5 -58q0 -41 -30.5 -71.5t-71.5 -30.5q-35 0 -58.5 23.5t-23.5 58.5zM735 1227q0 40 32 71t73 31q34 0 58 -24t24 -58q0 -41 -31.5 -71.5t-73.5 -30.5 q-35 0 -58.5 23.5t-23.5 58.5z" />
<glyph unicode="&#xec;" horiz-adv-x="415" d="M25 0l219 989h145l-219 -989h-145zM152 1434h149l166 -295h-105z" />
<glyph unicode="&#xed;" horiz-adv-x="415" d="M25 0l219 989h145l-219 -989h-145zM227 1139l299 295h152l-342 -295h-109z" />
<glyph unicode="&#xee;" horiz-adv-x="415" d="M25 0l219 989h145l-219 -989h-145zM113 1139l229 295h143l105 -295h-90l-101 215l-188 -215h-98z" />
<glyph unicode="&#xef;" horiz-adv-x="415" d="M25 0l219 989h145l-219 -989h-145zM100 1227q0 40 31.5 71t71.5 31q35 0 58.5 -24t23.5 -58q0 -41 -31 -71.5t-72 -30.5q-35 0 -58.5 23.5t-23.5 58.5zM457 1227q0 40 31.5 71t72.5 31q34 0 58 -24t24 -58q0 -41 -31.5 -71.5t-72.5 -30.5q-35 0 -58.5 23.5t-23.5 58.5z " />
<glyph unicode="&#xf0;" horiz-adv-x="978" d="M66 350q0 111 34 223.5t92 203.5t144 148.5t182 57.5q86 0 155.5 -46t100.5 -136q-37 166 -127 336l-280 -84l-19 82l256 75q-53 83 -100 136l127 77q71 -85 123 -168l192 58l19 -80l-166 -51q123 -223 123 -445q0 -87 -14.5 -176t-41.5 -174.5t-69.5 -160t-96 -130.5 t-123.5 -88.5t-149 -32.5q-170 0 -266 102t-96 273zM219 356q0 -123 56 -186.5t157 -63.5q67 0 128.5 50t102.5 125.5t65 164t24 166.5q0 60 -20.5 112.5t-71 91t-123.5 38.5q-67 0 -128.5 -49.5t-101.5 -124.5t-64 -161.5t-24 -162.5z" />
<glyph unicode="&#xf1;" horiz-adv-x="954" d="M27 0l219 989h145l-31 -137q143 162 295 162q106 0 168 -52.5t62 -146.5q0 -25 -11 -74l-163 -741h-148l156 702q10 45 10 62q0 119 -143 119q-66 0 -133.5 -47t-120.5 -115l-160 -721h-145zM346 1147q58 274 217 274q38 0 62.5 -20t36 -48t21.5 -56t27 -48t44 -20 q72 0 114 180h88q-27 -126 -80.5 -200t-136.5 -74q-38 0 -63 20t-36.5 48t-21 56t-26 48t-43.5 20q-76 0 -115 -180h-88z" />
<glyph unicode="&#xf2;" horiz-adv-x="978" d="M66 356q0 113 35 228.5t96 211.5t155.5 157t202.5 61q165 0 259.5 -101t94.5 -280q0 -113 -35 -228.5t-96 -211.5t-154.5 -157t-201.5 -61q-166 0 -261 101t-95 280zM219 358q0 -124 55 -188t154 -64q71 0 135 52.5t105.5 132t65.5 170t24 170.5q0 124 -55.5 188 t-155.5 64q-71 0 -134.5 -52.5t-104.5 -132t-65 -170t-24 -170.5zM436 1434h150l166 -295h-105z" />
<glyph unicode="&#xf3;" horiz-adv-x="978" d="M66 356q0 113 35 228.5t96 211.5t155.5 157t202.5 61q165 0 259.5 -101t94.5 -280q0 -113 -35 -228.5t-96 -211.5t-154.5 -157t-201.5 -61q-166 0 -261 101t-95 280zM219 358q0 -124 55 -188t154 -64q71 0 135 52.5t105.5 132t65.5 170t24 170.5q0 124 -55.5 188 t-155.5 64q-71 0 -134.5 -52.5t-104.5 -132t-65 -170t-24 -170.5zM508 1139l299 295h151l-342 -295h-108z" />
<glyph unicode="&#xf4;" horiz-adv-x="978" d="M66 356q0 113 35 228.5t96 211.5t155.5 157t202.5 61q165 0 259.5 -101t94.5 -280q0 -113 -35 -228.5t-96 -211.5t-154.5 -157t-201.5 -61q-166 0 -261 101t-95 280zM219 358q0 -124 55 -188t154 -64q71 0 135 52.5t105.5 132t65.5 170t24 170.5q0 124 -55.5 188 t-155.5 64q-71 0 -134.5 -52.5t-104.5 -132t-65 -170t-24 -170.5zM395 1139l230 295h143l104 -295h-90l-100 215l-188 -215h-99z" />
<glyph unicode="&#xf5;" horiz-adv-x="978" d="M66 356q0 113 35 228.5t96 211.5t155.5 157t202.5 61q165 0 259.5 -101t94.5 -280q0 -113 -35 -228.5t-96 -211.5t-154.5 -157t-201.5 -61q-166 0 -261 101t-95 280zM219 358q0 -124 55 -188t154 -64q71 0 135 52.5t105.5 132t65.5 170t24 170.5q0 124 -55.5 188 t-155.5 64q-71 0 -134.5 -52.5t-104.5 -132t-65 -170t-24 -170.5zM356 1147q58 274 217 274q38 0 62.5 -20t36 -48t21.5 -56t27 -48t44 -20q73 0 115 180h88q-27 -126 -80.5 -200t-136.5 -74q-38 0 -63 20t-36.5 48t-21.5 56t-26.5 48t-43.5 20q-76 0 -115 -180h-88z" />
<glyph unicode="&#xf6;" horiz-adv-x="978" d="M66 356q0 113 35 228.5t96 211.5t155.5 157t202.5 61q165 0 259.5 -101t94.5 -280q0 -113 -35 -228.5t-96 -211.5t-154.5 -157t-201.5 -61q-166 0 -261 101t-95 280zM219 358q0 -124 55 -188t154 -64q71 0 135 52.5t105.5 132t65.5 170t24 170.5q0 124 -55.5 188 t-155.5 64q-71 0 -134.5 -52.5t-104.5 -132t-65 -170t-24 -170.5zM383 1227q0 40 31 71t71 31q35 0 58.5 -24t23.5 -58q0 -41 -30.5 -71.5t-71.5 -30.5q-35 0 -58.5 23.5t-23.5 58.5zM739 1227q0 40 32 71t73 31q34 0 58 -24t24 -58q0 -41 -31.5 -71.5t-73.5 -30.5 q-35 0 -58.5 23.5t-23.5 58.5z" />
<glyph unicode="&#xf7;" horiz-adv-x="907" d="M90 639l23 104h788l-24 -104h-787zM328 336q0 41 29.5 70.5t70.5 29.5q35 0 59.5 -25.5t24.5 -60.5q0 -41 -30 -69.5t-72 -28.5q-34 0 -58 24.5t-24 59.5zM479 1022q0 41 29.5 69.5t71.5 28.5q35 0 59.5 -24.5t24.5 -59.5q0 -41 -30.5 -69.5t-70.5 -28.5 q-35 0 -59.5 24.5t-24.5 59.5z" />
<glyph unicode="&#xf8;" horiz-adv-x="978" d="M0 0l117 133q-51 86 -51 223q0 113 35 228.5t96 211.5t155.5 157t202.5 61q155 0 250 -92l57 67h107l-115 -131q55 -93 55 -225q0 -113 -35 -228.5t-96 -211.5t-154.5 -157t-201.5 -61q-161 0 -256 95l-60 -70h-106zM219 358q0 -60 10 -96l478 549q-57 72 -160 72 q-71 0 -134.5 -52.5t-104.5 -132t-65 -170t-24 -170.5zM264 182q55 -76 164 -76q71 0 135 52.5t105.5 132t65.5 170t24 170.5q0 52 -13 102z" />
<glyph unicode="&#xf9;" horiz-adv-x="952" d="M70 174q0 44 10 74l162 741h147l-156 -702q-8 -36 -8 -62q0 -61 38 -90t104 -29t133.5 45.5t117.5 112.5l162 725h148l-219 -989h-148l31 137q-143 -162 -295 -162q-104 0 -165.5 52.5t-61.5 146.5zM424 1434h149l166 -295h-104z" />
<glyph unicode="&#xfa;" horiz-adv-x="952" d="M70 174q0 44 10 74l162 741h147l-156 -702q-8 -36 -8 -62q0 -61 38 -90t104 -29t133.5 45.5t117.5 112.5l162 725h148l-219 -989h-148l31 137q-143 -162 -295 -162q-104 0 -165.5 52.5t-61.5 146.5zM498 1139l299 295h151l-342 -295h-108z" />
<glyph unicode="&#xfb;" horiz-adv-x="952" d="M70 174q0 44 10 74l162 741h147l-156 -702q-8 -36 -8 -62q0 -61 38 -90t104 -29t133.5 45.5t117.5 112.5l162 725h148l-219 -989h-148l31 137q-143 -162 -295 -162q-104 0 -165.5 52.5t-61.5 146.5zM381 1139l229 295h144l104 -295h-90l-100 215l-189 -215h-98z" />
<glyph unicode="&#xfc;" horiz-adv-x="952" d="M70 174q0 44 10 74l162 741h147l-156 -702q-8 -36 -8 -62q0 -61 38 -90t104 -29t133.5 45.5t117.5 112.5l162 725h148l-219 -989h-148l31 137q-143 -162 -295 -162q-104 0 -165.5 52.5t-61.5 146.5zM373 1227q0 40 31 71t71 31q35 0 58.5 -24t23.5 -58q0 -41 -30.5 -71.5 t-71.5 -30.5q-35 0 -58.5 23.5t-23.5 58.5zM729 1227q0 40 32 71t73 31q34 0 57.5 -24t23.5 -58q0 -41 -31.5 -71.5t-72.5 -30.5q-35 0 -58.5 23.5t-23.5 58.5z" />
<glyph unicode="&#xfd;" horiz-adv-x="837" d="M-109 -379l52 127q20 -14 71 -14q36 0 63.5 20.5t57.5 73.5l90 156l-104 1005h153l68 -811l428 811h164l-664 -1196q-58 -105 -119.5 -149.5t-144.5 -44.5q-66 0 -115 22zM438 1139l299 295h152l-342 -295h-109z" />
<glyph unicode="&#xfe;" horiz-adv-x="980" d="M-59 -377l385 1743h145l-113 -512q111 160 269 160q135 0 213 -92t78 -258q0 -72 -13.5 -150t-39 -155t-65 -146.5t-88 -122.5t-112 -84t-133.5 -31q-90 0 -158.5 45.5t-105.5 129.5l-117 -527h-145zM229 270q22 -71 80.5 -117.5t134.5 -46.5q72 0 134.5 54.5t101.5 137 t61.5 174t22.5 171.5q0 115 -52.5 177.5t-144.5 62.5q-67 0 -131.5 -47.5t-107.5 -118.5z" />
<glyph unicode="&#xff;" horiz-adv-x="837" d="M-109 -379l52 127q20 -14 71 -14q36 0 63.5 20.5t57.5 73.5l90 156l-104 1005h153l68 -811l428 811h164l-664 -1196q-58 -105 -119.5 -149.5t-144.5 -44.5q-66 0 -115 22zM311 1227q0 40 31.5 71t71.5 31q35 0 58.5 -24t23.5 -58q0 -41 -31 -71.5t-72 -30.5 q-35 0 -58.5 23.5t-23.5 58.5zM668 1227q0 40 31.5 71t72.5 31q34 0 58 -24t24 -58q0 -41 -31.5 -71.5t-72.5 -30.5q-35 0 -58.5 23.5t-23.5 58.5z" />
<glyph unicode="&#x152;" horiz-adv-x="1744" d="M102 469q0 99 21.5 205t60.5 208t98 193.5t129.5 160.5t160 109.5t184.5 40.5q54 0 101.5 -12t93 -38t80.5 -73.5t54 -113.5l48 217h702l-31 -145h-540l-99 -449h527l-33 -145h-526l-107 -482h541l-33 -145h-703l37 172q-68 -100 -161.5 -148.5t-200.5 -48.5 q-182 0 -293 136.5t-111 357.5zM272 469q0 -158 76 -253t209 -95q103 0 200 71.5t161 196.5l120 545q-17 150 -91 228.5t-195 78.5q-68 0 -133.5 -35t-117 -94t-95.5 -137t-73 -164t-45 -174t-16 -168z" />
<glyph unicode="&#x153;" horiz-adv-x="1611" d="M66 356q0 92 21.5 186t64 178.5t100 150t135.5 104.5t164 39q127 0 206.5 -74.5t96.5 -175.5q142 250 358 250q154 0 246 -97t92 -274q0 -99 -28 -197h-639q-9 -31 -9 -92q0 -115 64.5 -185.5t185.5 -70.5q128 0 228 103l57 -99q-130 -127 -299 -127q-142 0 -229 75 t-103 179q-32 -54 -62.5 -93t-74.5 -79t-100.5 -61t-122.5 -21q-164 0 -258 100.5t-94 280.5zM219 358q0 -120 52.5 -187t152.5 -67q70 0 133.5 52.5t104 132t64.5 170.5t24 172q0 125 -56.5 188.5t-150.5 63.5q-91 0 -168 -86.5t-116.5 -206t-39.5 -232.5zM901 557h502 q10 33 10 92q0 109 -55 175.5t-156 66.5q-80 0 -147 -55t-103.5 -128.5t-50.5 -150.5z" />
<glyph unicode="&#x178;" horiz-adv-x="1026" d="M201 1366h172l182 -631l461 631h190l-596 -788l-127 -578h-161l127 578zM487 1573q0 40 31.5 71t71.5 31q35 0 58.5 -24t23.5 -58q0 -41 -31 -71.5t-72 -30.5q-35 0 -58.5 23.5t-23.5 58.5zM844 1573q0 40 31.5 71t72.5 31q34 0 58 -24t24 -58q0 -41 -31.5 -71.5 t-72.5 -30.5q-35 0 -58.5 23.5t-23.5 58.5z" />
<glyph unicode="&#x2c6;" horiz-adv-x="477" d="M141 1139l230 295h143l104 -295h-90l-100 215l-188 -215h-99z" />
<glyph unicode="&#x2dc;" horiz-adv-x="552" d="M143 1147q58 274 217 274q38 0 62.5 -20t36 -48t21.5 -56t27 -48t44 -20q73 0 115 180h88q-27 -126 -80.5 -200t-136.5 -74q-38 0 -63 20t-36.5 48t-21.5 56t-26.5 48t-43.5 20q-76 0 -115 -180h-88z" />
<glyph unicode="&#x2000;" horiz-adv-x="896" />
<glyph unicode="&#x2001;" horiz-adv-x="1792" />
<glyph unicode="&#x2002;" horiz-adv-x="896" />
<glyph unicode="&#x2003;" horiz-adv-x="1792" />
<glyph unicode="&#x2004;" horiz-adv-x="597" />
<glyph unicode="&#x2005;" horiz-adv-x="448" />
<glyph unicode="&#x2006;" horiz-adv-x="298" />
<glyph unicode="&#x2007;" horiz-adv-x="298" />
<glyph unicode="&#x2008;" horiz-adv-x="224" />
<glyph unicode="&#x2009;" horiz-adv-x="358" />
<glyph unicode="&#x200a;" horiz-adv-x="99" />
<glyph unicode="&#x2010;" horiz-adv-x="548" d="M45 430l29 131h426l-29 -131h-426z" />
<glyph unicode="&#x2011;" horiz-adv-x="548" d="M45 430l29 131h426l-29 -131h-426z" />
<glyph unicode="&#x2012;" horiz-adv-x="548" d="M45 430l29 131h426l-29 -131h-426z" />
<glyph unicode="&#x2013;" horiz-adv-x="1079" d="M45 430l29 131h954l-27 -131h-956z" />
<glyph unicode="&#x2014;" horiz-adv-x="1509" d="M45 430l29 131h1384l-26 -131h-1387z" />
<glyph unicode="&#x2018;" horiz-adv-x="468" d="M233 1059q0 92 69 185t165 142l61 -63q-59 -30 -106 -77t-64 -95h17q35 0 59.5 -25.5t24.5 -64.5q0 -48 -36 -82.5t-83 -34.5q-45 0 -76 30.5t-31 84.5z" />
<glyph unicode="&#x2019;" horiz-adv-x="468" d="M227 1008q57 29 105 76.5t65 95.5h-16q-35 0 -59.5 25t-24.5 65q0 47 36.5 81.5t82.5 34.5q45 0 74.5 -30t29.5 -86q0 -91 -68 -185t-163 -143z" />
<glyph unicode="&#x201a;" horiz-adv-x="468" d="M-37 -180q58 29 105.5 76t64.5 96q-2 -2 -16 -2q-35 0 -59.5 25.5t-24.5 64.5q0 49 36 84t83 35q45 0 74.5 -31t29.5 -86q0 -93 -68 -186t-163 -142z" />
<glyph unicode="&#x201c;" horiz-adv-x="790" d="M244 1059q0 93 68 185.5t165 141.5l60 -63q-58 -31 -105.5 -77.5t-64.5 -94.5h16q35 0 59.5 -25.5t24.5 -64.5q0 -48 -36 -82.5t-83 -34.5q-45 0 -74.5 30t-29.5 85zM563 1059q0 93 68.5 185.5t165.5 141.5l61 -63q-59 -30 -107 -77t-65 -95h16q35 0 60.5 -25.5 t25.5 -64.5q0 -49 -35.5 -83t-82.5 -34q-46 0 -76.5 30t-30.5 85z" />
<glyph unicode="&#x201d;" horiz-adv-x="790" d="M227 1008q57 29 105 76.5t65 95.5h-16q-35 0 -59.5 25t-24.5 65q0 47 36.5 81.5t82.5 34.5q45 0 74.5 -30t29.5 -86q0 -91 -68 -185t-163 -143zM547 1008q58 28 105.5 75.5t64.5 96.5h-17q-35 0 -59.5 25t-24.5 65q0 47 36.5 81.5t82.5 34.5t76.5 -30t30.5 -86 q0 -92 -69 -185.5t-165 -142.5z" />
<glyph unicode="&#x201e;" horiz-adv-x="790" d="M-37 -180q58 29 105.5 76t64.5 96q-2 -2 -16 -2q-35 0 -59.5 25.5t-24.5 64.5q0 49 36 84t83 35q45 0 74.5 -31t29.5 -86q0 -93 -68 -186t-163 -142zM283 -180q59 29 107 76t65 96q-2 -2 -17 -2q-35 0 -60.5 25.5t-25.5 64.5q0 49 36 84t83 35q46 0 76.5 -31t30.5 -86 q0 -93 -68.5 -186t-165.5 -142z" />
<glyph unicode="&#x2022;" horiz-adv-x="733" d="M145 475q0 98 73.5 169t172.5 71q85 0 141 -56t56 -141q0 -98 -73.5 -168.5t-172.5 -70.5q-85 0 -141 55.5t-56 140.5z" />
<glyph unicode="&#x2026;" horiz-adv-x="1402" d="M33 80q0 49 35.5 84t85.5 35q41 0 69.5 -30t28.5 -73q0 -49 -34.5 -82.5t-84.5 -33.5q-42 0 -71 29t-29 71zM500 80q0 49 35.5 84t85.5 35q41 0 70.5 -30t29.5 -73q0 -49 -35.5 -82.5t-85.5 -33.5q-41 0 -70.5 29.5t-29.5 70.5zM969 80q0 50 34.5 84.5t83.5 34.5 q43 0 72 -30t29 -73q0 -49 -35.5 -82.5t-83.5 -33.5q-42 0 -71 29t-29 71z" />
<glyph unicode="&#x202f;" horiz-adv-x="358" />
<glyph unicode="&#x2039;" horiz-adv-x="516" d="M59 498l338 362h144l-346 -371l170 -360h-132z" />
<glyph unicode="&#x203a;" horiz-adv-x="516" d="M-23 129l347 373l-170 358h131l174 -368l-338 -363h-144z" />
<glyph unicode="&#x205f;" horiz-adv-x="448" />
<glyph unicode="&#x20ac;" horiz-adv-x="1126" d="M45 487l23 103h79q13 106 35 188h-73l24 105h84q83 223 234 364.5t340 141.5q160 0 263.5 -87.5t147.5 -232.5l-153 -45q-35 108 -104.5 163.5t-166.5 55.5q-116 0 -216 -99.5t-167 -260.5h443l-25 -105h-457q-27 -90 -39 -188h455l-24 -103h-437v-18q0 -165 78.5 -256.5 t218.5 -91.5q148 0 279 166l125 -76q-172 -236 -414 -236q-207 0 -332 132t-125 362v18h-96z" />
<glyph unicode="&#x2122;" horiz-adv-x="847" d="M215 1313l10 53h271l-11 -53h-106l-88 -398h-58l89 398h-107zM471 915l98 451h88l41 -324l181 324h88l-99 -451h-57l82 373l-215 -373h-16l-52 373l-82 -373h-57z" />
<glyph unicode="&#xe000;" horiz-adv-x="993" d="M0 0v993h993v-993h-993z" />
</font>
</defs>
</svg>
